  0
SECTION
  2
HEADER
  9
$ACADVER
  1
AC1018
  9
$ACADMAINTVER
 70
     0
  9
$DWGCODEPAGE
  3
ANSI_1252
  9
$INSBASE
 10
0.0
 20
0.0
 30
0.0
  9
$EXTMIN
 10
-457.7082196961705
 20
-314.224989179649
 30
0.0
  9
$EXTMAX
 10
-37.70821969617208
 20
-17.22498917964902
 30
0.0
  9
$LIMMIN
 10
0.0
 20
0.0
  9
$LIMMAX
 10
12.0
 20
9.0
  9
$ORTHOMODE
 70
     0
  9
$REGENMODE
 70
     1
  9
$FILLMODE
 70
     1
  9
$QTEXTMODE
 70
     0
  9
$MIRRTEXT
 70
     1
  9
$LTSCALE
 40
1.0
  9
$ATTMODE
 70
     1
  9
$TEXTSIZE
 40
0.2
  9
$TRACEWID
 40
0.05
  9
$TEXTSTYLE
  7
Standard
  9
$CLAYER
  8
0
  9
$CELTYPE
  6
ByLayer
  9
$CECOLOR
 62
   256
  9
$CELTSCALE
 40
1.0
  9
$DISPSILH
 70
     0
  9
$DIMSCALE
 40
1.0
  9
$DIMASZ
 40
0.18
  9
$DIMEXO
 40
0.0625
  9
$DIMDLI
 40
0.38
  9
$DIMRND
 40
0.0
  9
$DIMDLE
 40
0.0
  9
$DIMEXE
 40
0.18
  9
$DIMTP
 40
0.0
  9
$DIMTM
 40
0.0
  9
$DIMTXT
 40
0.18
  9
$DIMCEN
 40
0.09
  9
$DIMTSZ
 40
0.0
  9
$DIMTOL
 70
     0
  9
$DIMLIM
 70
     0
  9
$DIMTIH
 70
     1
  9
$DIMTOH
 70
     1
  9
$DIMSE1
 70
     0
  9
$DIMSE2
 70
     0
  9
$DIMTAD
 70
     0
  9
$DIMZIN
 70
     0
  9
$DIMBLK
  1

  9
$DIMASO
 70
     1
  9
$DIMSHO
 70
     1
  9
$DIMPOST
  1

  9
$DIMAPOST
  1

  9
$DIMALT
 70
     0
  9
$DIMALTD
 70
     2
  9
$DIMALTF
 40
25.4
  9
$DIMLFAC
 40
1.0
  9
$DIMTOFL
 70
     0
  9
$DIMTVP
 40
0.0
  9
$DIMTIX
 70
     0
  9
$DIMSOXD
 70
     0
  9
$DIMSAH
 70
     0
  9
$DIMBLK1
  1

  9
$DIMBLK2
  1

  9
$DIMSTYLE
  2
Standard
  9
$DIMCLRD
 70
     0
  9
$DIMCLRE
 70
     0
  9
$DIMCLRT
 70
     0
  9
$DIMTFAC
 40
1.0
  9
$DIMGAP
 40
0.09
  9
$DIMJUST
 70
     0
  9
$DIMSD1
 70
     0
  9
$DIMSD2
 70
     0
  9
$DIMTOLJ
 70
     1
  9
$DIMTZIN
 70
     0
  9
$DIMALTZ
 70
     0
  9
$DIMALTTZ
 70
     0
  9
$DIMUPT
 70
     0
  9
$DIMDEC
 70
     4
  9
$DIMTDEC
 70
     4
  9
$DIMALTU
 70
     2
  9
$DIMALTTD
 70
     2
  9
$DIMTXSTY
  7
Standard
  9
$DIMAUNIT
 70
     0
  9
$DIMADEC
 70
     0
  9
$DIMALTRND
 40
0.0
  9
$DIMAZIN
 70
     0
  9
$DIMDSEP
 70
    46
  9
$DIMATFIT
 70
     3
  9
$DIMFRAC
 70
     0
  9
$DIMLDRBLK
  1

  9
$DIMLUNIT
 70
     2
  9
$DIMLWD
 70
    -2
  9
$DIMLWE
 70
    -2
  9
$DIMTMOVE
 70
     0
  9
$LUNITS
 70
     2
  9
$LUPREC
 70
     4
  9
$SKETCHINC
 40
0.1
  9
$FILLETRAD
 40
0.5
  9
$AUNITS
 70
     0
  9
$AUPREC
 70
     0
  9
$MENU
  1
.
  9
$ELEVATION
 40
0.0
  9
$PELEVATION
 40
0.0
  9
$THICKNESS
 40
0.0
  9
$LIMCHECK
 70
     0
  9
$CHAMFERA
 40
0.5
  9
$CHAMFERB
 40
0.5
  9
$CHAMFERC
 40
1.0
  9
$CHAMFERD
 40
0.0
  9
$SKPOLY
 70
     0
  9
$TDCREATE
 40
2458137.63949272
  9
$TDUCREATE
 40
2458137.597826053
  9
$TDUPDATE
 40
2458137.639493264
  9
$TDUUPDATE
 40
2458137.597826597
  9
$TDINDWG
 40
0.0000000116
  9
$TDUSRTIMER
 40
0.0000000116
  9
$USRTIMER
 70
     1
  9
$ANGBASE
 50
0.0
  9
$ANGDIR
 70
     0
  9
$PDMODE
 70
     0
  9
$PDSIZE
 40
0.0
  9
$PLINEWID
 40
0.0
  9
$SPLFRAME
 70
     0
  9
$SPLINETYPE
 70
     6
  9
$SPLINESEGS
 70
     8
  9
$HANDSEED
  5
579
  9
$SURFTAB1
 70
     6
  9
$SURFTAB2
 70
     6
  9
$SURFTYPE
 70
     6
  9
$SURFU
 70
     6
  9
$SURFV
 70
     6
  9
$UCSBASE
  2

  9
$UCSNAME
  2

  9
$UCSORG
 10
0.0
 20
0.0
 30
0.0
  9
$UCSXDIR
 10
1.0
 20
0.0
 30
0.0
  9
$UCSYDIR
 10
0.0
 20
1.0
 30
0.0
  9
$UCSORTHOREF
  2

  9
$UCSORTHOVIEW
 70
     0
  9
$UCSORGTOP
 10
0.0
 20
0.0
 30
0.0
  9
$UCSORGBOTTOM
 10
0.0
 20
0.0
 30
0.0
  9
$UCSORGLEFT
 10
0.0
 20
0.0
 30
0.0
  9
$UCSORGRIGHT
 10
0.0
 20
0.0
 30
0.0
  9
$UCSORGFRONT
 10
0.0
 20
0.0
 30
0.0
  9
$UCSORGBACK
 10
0.0
 20
0.0
 30
0.0
  9
$PUCSBASE
  2

  9
$PUCSNAME
  2

  9
$PUCSORG
 10
0.0
 20
0.0
 30
0.0
  9
$PUCSXDIR
 10
1.0
 20
0.0
 30
0.0
  9
$PUCSYDIR
 10
0.0
 20
1.0
 30
0.0
  9
$PUCSORTHOREF
  2

  9
$PUCSORTHOVIEW
 70
     0
  9
$PUCSORGTOP
 10
0.0
 20
0.0
 30
0.0
  9
$PUCSORGBOTTOM
 10
0.0
 20
0.0
 30
0.0
  9
$PUCSORGLEFT
 10
0.0
 20
0.0
 30
0.0
  9
$PUCSORGRIGHT
 10
0.0
 20
0.0
 30
0.0
  9
$PUCSORGFRONT
 10
0.0
 20
0.0
 30
0.0
  9
$PUCSORGBACK
 10
0.0
 20
0.0
 30
0.0
  9
$USERI1
 70
     0
  9
$USERI2
 70
     0
  9
$USERI3
 70
     0
  9
$USERI4
 70
     0
  9
$USERI5
 70
     0
  9
$USERR1
 40
18.1
  9
$USERR2
 40
0.0
  9
$USERR3
 40
0.0
  9
$USERR4
 40
0.0
  9
$USERR5
 40
0.0
  9
$WORLDVIEW
 70
     1
  9
$SHADEDGE
 70
     3
  9
$SHADEDIF
 70
    70
  9
$TILEMODE
 70
     1
  9
$MAXACTVP
 70
    64
  9
$PINSBASE
 10
0.0
 20
0.0
 30
0.0
  9
$PLIMCHECK
 70
     0
  9
$PEXTMIN
 10
1.00000000000000E+20
 20
1.00000000000000E+20
 30
1.00000000000000E+20
  9
$PEXTMAX
 10
-1.00000000000000E+20
 20
-1.00000000000000E+20
 30
-1.00000000000000E+20
  9
$PLIMMIN
 10
0.0
 20
0.0
  9
$PLIMMAX
 10
12.0
 20
9.0
  9
$UNITMODE
 70
     0
  9
$VISRETAIN
 70
     1
  9
$PLINEGEN
 70
     0
  9
$PSLTSCALE
 70
     1
  9
$TREEDEPTH
 70
  3020
  9
$CMLSTYLE
  2
Standard
  9
$CMLJUST
 70
     0
  9
$CMLSCALE
 40
1.0
  9
$PROXYGRAPHICS
 70
     1
  9
$MEASUREMENT
 70
     1
  9
$CELWEIGHT
370
    -1
  9
$ENDCAPS
280
     0
  9
$JOINSTYLE
280
     0
  9
$LWDISPLAY
290
     0
  9
$INSUNITS
 70
     4
  9
$HYPERLINKBASE
  1

  9
$STYLESHEET
  1

  9
$XEDIT
290
     1
  9
$CEPSNTYPE
380
     0
  9
$PSTYLEMODE
290
     1
  9
$FINGERPRINTGUID
  2
{DE643A4E-FE80-4323-911F-EC7A977B7489}
  9
$VERSIONGUID
  2
{FAEB1C32-E019-11D5-929B-00C0DF256EC4}
  9
$EXTNAMES
290
     1
  9
$PSVPSCALE
 40
0.0
  9
$OLESTARTUP
290
     0
  9
$SORTENTS
280
   127
  9
$INDEXCTL
280
     0
  9
$HIDETEXT
280
     1
  9
$XCLIPFRAME
290
     0
  9
$HALOGAP
280
     0
  9
$OBSCOLOR
 70
   257
  9
$OBSLTYPE
280
     0
  9
$INTERSECTIONDISPLAY
280
     0
  9
$INTERSECTIONCOLOR
 70
   257
  9
$DIMASSOC
280
     2
  9
$PROJECTNAME
  1

  0
ENDSEC
  0
SECTION
  2
CLASSES
  0
CLASS
  1
ACDBDICTIONARYWDFLT
  2
AcDbDictionaryWithDefault
  3
ObjectDBX Classes
 90
        0
 91
        4
280
     0
281
     0
  0
CLASS
  1
VISUALSTYLE
  2
AcDbVisualStyle
  3
ObjectDBX Classes
 90
     4095
 91
        4
280
     0
281
     0
  0
CLASS
  1
MATERIAL
  2
AcDbMaterial
  3
ObjectDBX Classes
 90
     1153
 91
        4
280
     0
281
     0
  0
ENDSEC
  0
SECTION
  2
TABLES
  0
TABLE
  2
VPORT
  5
8
330
0
100
AcDbSymbolTable
 70
     1
  0
VPORT
  5
29
330
8
100
AcDbSymbolTableRecord
100
AcDbViewportTableRecord
  2
*Active
 70
     0
 10
0.0
 20
0.0
 11
1.0
 21
1.0
 12
-247.7082196961713
 22
-165.724989179649
 13
0.0
 23
0.0
 14
0.5
 24
0.5
 15
0.5
 25
0.5
 16
0.0
 26
0.0
 36
1.0
 17
0.0
 27
0.0
 37
0.0
 40
326.7
 41
1.60267857142857
 42
50.0
 43
0.0
 44
0.0
 50
0.0
 51
0.0
 71
     0
 72
   100
 73
     1
 74
     3
 75
     0
 76
     0
 77
     0
 78
     0
281
     0
 65
     1
110
0.0
120
0.0
130
0.0
111
1.0
121
0.0
131
0.0
112
0.0
122
1.0
132
0.0
 79
     0
146
0.0
  0
ENDTAB
  0
TABLE
  2
LTYPE
  5
5
330
0
100
AcDbSymbolTable
 70
     8
  0
LTYPE
  5
14
330
5
100
AcDbSymbolTableRecord
100
AcDbLinetypeTableRecord
  2
ByBlock
 70
     0
  3

 72
    65
 73
     0
 40
0.0
  0
LTYPE
  5
15
330
5
100
AcDbSymbolTableRecord
100
AcDbLinetypeTableRecord
  2
ByLayer
 70
     0
  3

 72
    65
 73
     0
 40
0.0
  0
LTYPE
  5
16
330
5
100
AcDbSymbolTableRecord
100
AcDbLinetypeTableRecord
  2
Continuous
 70
     0
  3
Solid line
 72
    65
 73
     0
 40
0.0
  0
LTYPE
  5
3F
330
5
100
AcDbSymbolTableRecord
100
AcDbLinetypeTableRecord
  2
DASHED
 70
     0
  3
Dashed
 72
    65
 73
     2
 40
15.0
 49
7.0
 74
     0
 49
-8.0
 74
     0
  0
LTYPE
  5
40
330
5
100
AcDbSymbolTableRecord
100
AcDbLinetypeTableRecord
  2
DOTTED
 70
     0
  3
Dotted
 72
    65
 73
     2
 40
1.0
 49
0.0
 74
     0
 49
-1.0
 74
     0
  0
LTYPE
  5
41
330
5
100
AcDbSymbolTableRecord
100
AcDbLinetypeTableRecord
  2
DOT_CENTER
 70
     0
  3
Dot_Center
 72
    65
 73
     4
 40
14.0
 49
12.0
 74
     0
 49
-1.0
 74
     0
 49
0.0
 74
     0
 49
-1.0
 74
     0
  0
LTYPE
  5
42
330
5
100
AcDbSymbolTableRecord
100
AcDbLinetypeTableRecord
  2
LONG_DASHED
 70
     0
  3
Long_Dashed
 72
    65
 73
     2
 40
15.0
 49
10.0
 74
     0
 49
-5.0
 74
     0
  0
LTYPE
  5
43
330
5
100
AcDbSymbolTableRecord
100
AcDbLinetypeTableRecord
  2
DASH_CENTER
 70
     0
  3
Dash_Center
 72
    65
 73
     4
 40
14.0
 49
11.0
 74
     0
 49
-1.0
 74
     0
 49
1.0
 74
     0
 49
-1.0
 74
     0
  0
LTYPE
  5
44
330
5
100
AcDbSymbolTableRecord
100
AcDbLinetypeTableRecord
  2
PHANTOM
 70
     0
  3
Phantom
 72
    65
 73
     6
 40
13.0
 49
10.0
 74
     0
 49
-1.0
 74
     0
 49
0.0
 74
     0
 49
-1.0
 74
     0
 49
0.0
 74
     0
 49
-1.0
 74
     0
  0
LTYPE
  5
45
330
5
100
AcDbSymbolTableRecord
100
AcDbLinetypeTableRecord
  2
CENTER_DASH_DASH
 70
     0
  3
Center_Dash_Dash
 72
    65
 73
     6
 40
14.0
 49
9.0
 74
     0
 49
-1.0
 74
     0
 49
1.0
 74
     0
 49
-1.0
 74
     0
 49
1.0
 74
     0
 49
-1.0
 74
     0
  0
ENDTAB
  0
TABLE
  2
LAYER
  5
2
330
0
100
AcDbSymbolTable
 70
     2
  0
LAYER
  5
10
330
2
100
AcDbSymbolTableRecord
100
AcDbLayerTableRecord
  2
0
 70
     0
 62
     7
  6
Continuous
370
    -3
390
F
  0
LAYER
  5
46
330
2
100
AcDbSymbolTableRecord
100
AcDbLayerTableRecord
  2
1
 70
     0
 62
     7
  6
Continuous
370
    -3
390
F
  0
ENDTAB
  0
TABLE
  2
STYLE
  5
3
330
0
100
AcDbSymbolTable
 70
     5
  0
STYLE
  5
11
330
3
100
AcDbSymbolTableRecord
100
AcDbTextStyleTableRecord
  2
Standard
 70
     0
 40
0.0
 41
1.0
 50
0.0
 71
     0
 42
0.2
  3
txt
  4

  0
STYLE
  5
183
330
3
100
AcDbSymbolTableRecord
100
AcDbTextStyleTableRecord
  2
CONVERTER_11
 70
     0
 40
0.0
 41
0.9
 50
0.0
 71
     0
 42
0.2
  3
txt.shx
  4

  0
STYLE
  5
51D
330
3
100
AcDbSymbolTableRecord
100
AcDbTextStyleTableRecord
  2
CONVERTER_12
 70
     0
 40
0.0
 41
0.81
 50
0.0
 71
     0
 42
0.2
  3
txt.shx
  4

  0
STYLE
  5
523
330
3
100
AcDbSymbolTableRecord
100
AcDbTextStyleTableRecord
  2
CONVERTER_13
 70
     0
 40
0.0
 41
0.855
 50
0.0
 71
     0
 42
0.2
  3
txt.shx
  4

  0
STYLE
  5
526
330
3
100
AcDbSymbolTableRecord
100
AcDbTextStyleTableRecord
  2
CONVERTER_14
 70
     0
 40
0.0
 41
0.72
 50
0.0
 71
     0
 42
0.2
  3
txt.shx
  4

  0
ENDTAB
  0
TABLE
  2
VIEW
  5
6
330
0
100
AcDbSymbolTable
 70
     0
  0
ENDTAB
  0
TABLE
  2
UCS
  5
7
330
0
100
AcDbSymbolTable
 70
     0
  0
ENDTAB
  0
TABLE
  2
APPID
  5
9
330
0
100
AcDbSymbolTable
 70
     1
  0
APPID
  5
12
330
9
100
AcDbSymbolTableRecord
100
AcDbRegAppTableRecord
  2
ACAD
 70
     0
  0
ENDTAB
  0
TABLE
  2
DIMSTYLE
  5
A
330
0
100
AcDbSymbolTable
 70
     4
100
AcDbDimStyleTable
  0
DIMSTYLE
105
27
330
A
100
AcDbSymbolTableRecord
100
AcDbDimStyleTableRecord
  2
Standard
 70
     0
178
     0
340
11
  0
DIMSTYLE
105
2AF
102
{ACAD_REACTORS
330
2B0
102
}
330
A
100
AcDbSymbolTableRecord
100
AcDbDimStyleTableRecord
  2
ME10_DIM_10
 70
     0
 41
1.75
 42
0.0
 44
0.75
 73
     0
 74
     0
 77
     1
 78
     8
140
1.75
147
0.75
172
     1
173
     1
174
     1
175
     1
176
     2
177
     2
271
     1
178
     3
271
     1
340
183
  0
DIMSTYLE
105
2BA
102
{ACAD_REACTORS
330
2BB
102
}
330
A
100
AcDbSymbolTableRecord
100
AcDbDimStyleTableRecord
  2
ME10_DIM_11
 70
     0
 41
1.75
 42
0.0
 44
0.75
 73
     0
 74
     0
 77
     1
 78
     8
140
1.75
147
0.75
172
     1
173
     1
174
     1
175
     1
176
     2
177
     2
271
     1
178
     3
271
     1
340
183
  0
DIMSTYLE
105
402
102
{ACAD_REACTORS
330
403
102
}
330
A
100
AcDbSymbolTableRecord
100
AcDbDimStyleTableRecord
  2
ME10_DIM_12
 70
     0
 41
1.75
 42
0.0
 44
0.75
 73
     0
 74
     0
 77
     1
 78
     8
140
1.75
147
0.75
172
     1
173
     1
174
     1
175
     1
176
     2
177
     2
271
     1
178
     3
271
     1
340
183
  0
ENDTAB
  0
TABLE
  2
BLOCK_RECORD
  5
1
330
0
100
AcDbSymbolTable
 70
    20
  0
BLOCK_RECORD
  5
1F
330
1
100
AcDbSymbolTableRecord
100
AcDbBlockTableRecord
  2
*Model_Space
340
22
  0
BLOCK_RECORD
  5
1B
330
1
100
AcDbSymbolTableRecord
100
AcDbBlockTableRecord
  2
*Paper_Space
340
1E
  0
BLOCK_RECORD
  5
23
330
1
100
AcDbSymbolTableRecord
100
AcDbBlockTableRecord
  2
*Paper_Space0
340
26
  0
BLOCK_RECORD
  5
47
330
1
100
AcDbSymbolTableRecord
100
AcDbBlockTableRecord
  2
WS_PT_16-select__1
340
0
102
{BLKREFS
331
4B
102
}
  0
BLOCK_RECORD
  5
4A
330
1
100
AcDbSymbolTableRecord
100
AcDbBlockTableRecord
  2
Allg1
340
0
102
{BLKREFS
331
7D
102
}
  0
BLOCK_RECORD
  5
4E
330
1
100
AcDbSymbolTableRecord
100
AcDbBlockTableRecord
  2
WS_PT_16-select__2
340
0
102
{BLKREFS
331
52
102
}
  0
BLOCK_RECORD
  5
51
330
1
100
AcDbSymbolTableRecord
100
AcDbBlockTableRecord
  2
Drfsicht1
340
0
102
{BLKREFS
331
7E
102
}
  0
BLOCK_RECORD
  5
55
330
1
100
AcDbSymbolTableRecord
100
AcDbBlockTableRecord
  2
WS_PT_16-select__3
340
0
102
{BLKREFS
331
59
102
}
  0
BLOCK_RECORD
  5
58
330
1
100
AcDbSymbolTableRecord
100
AcDbBlockTableRecord
  2
Rckans1
340
0
102
{BLKREFS
331
7F
102
}
  0
BLOCK_RECORD
  5
5C
330
1
100
AcDbSymbolTableRecord
100
AcDbBlockTableRecord
  2
WS_PT_16-select__4
340
0
102
{BLKREFS
331
60
102
}
  0
BLOCK_RECORD
  5
5F
330
1
100
AcDbSymbolTableRecord
100
AcDbBlockTableRecord
  2
SA_Links1
340
0
102
{BLKREFS
331
80
102
}
  0
BLOCK_RECORD
  5
63
330
1
100
AcDbSymbolTableRecord
100
AcDbBlockTableRecord
  2
WS_PT_16-select__5
340
0
102
{BLKREFS
331
67
102
}
  0
BLOCK_RECORD
  5
66
330
1
100
AcDbSymbolTableRecord
100
AcDbBlockTableRecord
  2
SA_Rechts1
340
0
102
{BLKREFS
331
81
102
}
  0
BLOCK_RECORD
  5
6A
330
1
100
AcDbSymbolTableRecord
100
AcDbBlockTableRecord
  2
WS_PT_16-select__6
340
0
102
{BLKREFS
331
6E
102
}
  0
BLOCK_RECORD
  5
6D
330
1
100
AcDbSymbolTableRecord
100
AcDbBlockTableRecord
  2
Vordans1
340
0
102
{BLKREFS
331
82
102
}
  0
BLOCK_RECORD
  5
71
330
1
100
AcDbSymbolTableRecord
100
AcDbBlockTableRecord
  2
_rahmen
340
0
102
{BLKREFS
331
78
102
}
  0
BLOCK_RECORD
  5
74
330
1
100
AcDbSymbolTableRecord
100
AcDbBlockTableRecord
  2
_punkt
340
0
102
{BLKREFS
331
79
102
}
  0
BLOCK_RECORD
  5
77
330
1
100
AcDbSymbolTableRecord
100
AcDbBlockTableRecord
  2
A3I_CS
340
0
102
{BLKREFS
331
83
102
}
  0
BLOCK_RECORD
  5
7C
330
1
100
AcDbSymbolTableRecord
100
AcDbBlockTableRecord
  2
1
340
0
102
{BLKREFS
331
86
102
}
  0
BLOCK_RECORD
  5
2A6
330
1
100
AcDbSymbolTableRecord
100
AcDbBlockTableRecord
  2
*D17
340
0
  0
BLOCK_RECORD
  5
2B1
330
1
100
AcDbSymbolTableRecord
100
AcDbBlockTableRecord
  2
*D18
340
0
  0
BLOCK_RECORD
  5
3F9
330
1
100
AcDbSymbolTableRecord
100
AcDbBlockTableRecord
  2
*D19
340
0
  0
ENDTAB
  0
ENDSEC
  0
SECTION
  2
BLOCKS
  0
BLOCK
  5
20
330
1F
100
AcDbEntity
  8
0
100
AcDbBlockBegin
  2
*Model_Space
 70
     0
 10
0.0
 20
0.0
 30
0.0
  3
*Model_Space
  1

  0
ENDBLK
  5
21
330
1F
100
AcDbEntity
  8
0
100
AcDbBlockEnd
  0
BLOCK
  5
1C
330
1B
100
AcDbEntity
 67
     1
  8
0
100
AcDbBlockBegin
  2
*Paper_Space
 70
     0
 10
0.0
 20
0.0
 30
0.0
  3
*Paper_Space
  1

  0
ENDBLK
  5
1D
330
1B
100
AcDbEntity
 67
     1
  8
0
100
AcDbBlockEnd
  0
BLOCK
  5
24
330
23
100
AcDbEntity
  8
0
100
AcDbBlockBegin
  2
*Paper_Space0
 70
     0
 10
0.0
 20
0.0
 30
0.0
  3
*Paper_Space0
  1

  0
ENDBLK
  5
25
330
23
100
AcDbEntity
  8
0
100
AcDbBlockEnd
  0
BLOCK
  5
48
330
47
100
AcDbEntity
  8
0
100
AcDbBlockBegin
  2
WS_PT_16-select__1
 70
     0
 10
-83.7794655427913
 20
-120.4783461765467
 30
0.0
  3
WS_PT_16-select__1
  1

  0
LINE
  5
87
330
47
100
AcDbEntity
  8
0
  6
Continuous
 62
     7
100
AcDbLine
 10
-83.7794655427913
 20
-120.0879368727097
 30
0.0
 11
-83.0545559181755
 21
-120.362494065787
 31
0.0
  0
LINE
  5
88
330
47
100
AcDbEntity
  8
0
  6
Continuous
 62
     7
100
AcDbLine
 10
-83.77946554274475
 20
-110.2069973184347
 30
0.0
 11
-83.7794655427913
 21
-120.0879368727097
 31
0.0
  0
LINE
  5
89
330
47
100
AcDbEntity
  8
0
  6
Continuous
 62
     7
100
AcDbLine
 10
-83.0545559181755
 20
-120.362494065787
 30
0.0
 11
-82.48635848092644
 21
-120.4783461765467
 31
0.0
  0
LINE
  5
8A
330
47
100
AcDbEntity
  8
0
  6
Continuous
 62
     7
100
AcDbLine
 10
-83.0545559181755
 20
-120.362494065787
 30
0.0
 11
-83.05455591812859
 21
-110.4032019581874
 31
0.0
  0
LINE
  5
8B
330
47
100
AcDbEntity
  8
0
  6
Continuous
 62
     7
100
AcDbLine
 10
-82.48635848092644
 20
-120.4783461765467
 30
0.0
 11
-76.84473327157573
 21
-115.5925554266911
 31
0.0
  0
LINE
  5
8C
330
47
100
AcDbEntity
  8
0
  6
Continuous
 62
     7
100
AcDbLine
 10
-82.48635848087986
 20
-110.5768609193228
 30
0.0
 11
-82.48635848092644
 21
-120.4783461765467
 31
0.0
  0
LINE
  5
8D
330
47
100
AcDbEntity
  8
0
  6
Continuous
 62
     7
100
AcDbLine
 10
-76.84473327157356
 20
-115.1288792813874
 30
0.0
 11
-76.41135848092645
 21
-115.2172418486134
 31
0.0
  0
LINE
  5
8E
330
47
100
AcDbEntity
  8
0
  6
Continuous
 62
     7
100
AcDbLine
 10
-76.41135848091508
 20
-112.8029738765536
 30
0.0
 11
-76.41135848092645
 21
-115.2172418486134
 31
0.0
  0
LINE
  5
8F
330
47
100
AcDbEntity
  8
0
  6
Continuous
 62
     7
100
AcDbLine
 10
-76.84473327157573
 20
-115.5925554266911
 30
0.0
 11
-76.84473327156235
 21
-112.7472477264954
 31
0.0
  0
LINE
  5
90
330
47
100
AcDbEntity
  8
0
  6
Continuous
 62
     7
100
AcDbLine
 10
-82.48635848087986
 20
-110.5768609193228
 30
0.0
 11
-83.05455591812859
 21
-110.4032019581874
 31
0.0
  0
LINE
  5
91
330
47
100
AcDbEntity
  8
0
  6
Continuous
 62
     7
100
AcDbLine
 10
-80.26554587621926
 20
-111.0928497531948
 30
0.0
 11
-76.66501300132086
 21
-112.1113914969902
 31
0.0
  0
LINE
  5
92
330
47
100
AcDbEntity
  8
0
  6
Continuous
 62
     7
100
AcDbLine
 10
-76.66501300132187
 20
-112.6310067392615
 30
0.0
 11
-80.26554587622027
 21
-111.6124649954661
 31
0.0
  0
LINE
  5
93
330
47
100
AcDbEntity
  8
0
  6
Continuous
 62
     7
100
AcDbLine
 10
-80.26554587622027
 20
-111.6124649954661
 30
0.0
 11
-80.26554587621926
 21
-111.0928497531948
 31
0.0
  0
LINE
  5
94
330
47
100
AcDbEntity
  8
0
  6
Continuous
 62
     7
100
AcDbLine
 10
-79.81554587623347
 20
-110.7031383215062
 30
0.0
 11
-80.26554587621926
 21
-111.0928497531948
 31
0.0
  0
LINE
  5
95
330
47
100
AcDbEntity
  8
0
  6
Continuous
 62
     7
100
AcDbLine
 10
-75.48541885721633
 20
-112.8221648476415
 30
0.0
 11
-75.48541885721565
 21
-112.4727535638071
 31
0.0
  0
LINE
  5
96
330
47
100
AcDbEntity
  8
0
  6
Continuous
 62
     7
100
AcDbLine
 10
-75.48541885721633
 20
-112.8221648476415
 30
0.0
 11
-75.18541885721633
 21
-112.5623572265076
 31
0.0
  0
LINE
  5
97
330
47
100
AcDbEntity
  8
0
  6
Continuous
 62
     7
100
AcDbLine
 10
-76.66440910667103
 20
-112.7977291639197
 30
0.0
 11
-75.48541885721633
 21
-112.8221648476415
 31
0.0
  0
LINE
  5
98
330
47
100
AcDbEntity
  8
0
  6
Continuous
 62
     7
100
AcDbLine
 10
-75.00268383031568
 20
-112.0546927672174
 30
0.0
 11
-75.00268383031465
 21
-111.5350775249461
 31
0.0
  0
LINE
  5
99
330
47
100
AcDbEntity
  8
0
  6
Continuous
 62
     7
100
AcDbLine
 10
-75.00268383031568
 20
-112.0546927672174
 30
0.0
 11
-75.18541885721565
 21
-112.2129459426732
 31
0.0
  0
LINE
  5
9A
330
47
100
AcDbEntity
  8
0
  6
Continuous
 62
     7
100
AcDbLine
 10
-75.18541885721633
 20
-112.5623572265076
 30
0.0
 11
-75.18541885721565
 21
-112.2129459426732
 31
0.0
  0
LINE
  5
9B
330
47
100
AcDbEntity
  8
0
  6
Continuous
 62
     7
100
AcDbLine
 10
-75.66815388411565
 20
-112.6310067392629
 30
0.0
 11
-75.48541885721565
 21
-112.4727535638071
 31
0.0
  0
LINE
  5
9C
330
47
100
AcDbEntity
  8
0
  6
Continuous
 62
     7
100
AcDbLine
 10
-75.66815388411464
 20
-112.1113914969916
 30
0.0
 11
-75.48541885721464
 21
-111.9531383215358
 31
0.0
  0
LINE
  5
9D
330
47
100
AcDbEntity
  8
0
  6
Continuous
 62
     7
100
AcDbLine
 10
-76.66501300132187
 20
-112.6310067392615
 30
0.0
 11
-76.66501300132086
 21
-112.1113914969902
 31
0.0
  0
LINE
  5
9E
330
47
100
AcDbEntity
  8
0
  6
Continuous
 62
     7
100
AcDbLine
 10
-75.66815388411565
 20
-112.6310067392629
 30
0.0
 11
-76.66501300132187
 21
-112.6310067392615
 31
0.0
  0
LINE
  5
9F
330
47
100
AcDbEntity
  8
0
  6
Continuous
 62
     7
100
AcDbLine
 10
-75.66815388411464
 20
-112.1113914969916
 30
0.0
 11
-75.66815388411565
 21
-112.6310067392629
 31
0.0
  0
LINE
  5
A0
330
47
100
AcDbEntity
  8
0
  6
Continuous
 62
     7
100
AcDbLine
 10
-76.66501300132086
 20
-112.1113914969902
 30
0.0
 11
-75.66815388411464
 21
-112.1113914969916
 31
0.0
  0
LINE
  5
A1
330
47
100
AcDbEntity
  8
0
  6
Continuous
 62
     7
100
AcDbLine
 10
-79.81554587623583
 20
-111.9155738868163
 30
0.0
 11
-76.66440910667103
 21
-112.7977291639197
 31
0.0
  0
LINE
  5
A2
330
47
100
AcDbEntity
  8
0
  6
Continuous
 62
     7
100
AcDbLine
 10
-79.81554587623549
 20
-111.7397638705542
 30
0.0
 11
-79.81554587623583
 21
-111.9155738868163
 31
0.0
  0
LINE
  5
A3
330
47
100
AcDbEntity
  8
0
  6
Continuous
 62
     7
100
AcDbLine
 10
-76.66440910665814
 20
-110.9474723835307
 30
0.0
 11
-76.36440910665814
 21
-110.6876647623968
 31
0.0
  0
LINE
  5
A4
330
47
100
AcDbEntity
  8
0
  6
Continuous
 62
     7
100
AcDbLine
 10
-76.36440910665814
 20
-110.6876647623968
 30
0.0
 11
-75.18541885721396
 21
-111.343919416565
 31
0.0
  0
LINE
  5
A5
330
47
100
AcDbEntity
  8
0
  6
Continuous
 62
     7
100
AcDbLine
 10
-75.18541885721396
 20
-111.343919416565
 30
0.0
 11
-75.18541885721464
 21
-111.6933307004019
 31
0.0
  0
LINE
  5
A6
330
47
100
AcDbEntity
  8
0
  6
Continuous
 62
     7
100
AcDbLine
 10
-75.18541885721396
 20
-111.343919416565
 30
0.0
 11
-75.48541885721396
 21
-111.603727037699
 31
0.0
  0
LINE
  5
A7
330
47
100
AcDbEntity
  8
0
  6
Continuous
 62
     7
100
AcDbLine
 10
-75.00268383031465
 20
-111.5350775249461
 30
0.0
 11
-75.18541885721403
 21
-111.3768243494904
 31
0.0
  0
LINE
  5
A8
330
47
100
AcDbEntity
  8
0
  6
Continuous
 62
     7
100
AcDbLine
 10
-75.00268383031465
 20
-111.5350775249461
 30
0.0
 11
-75.18541885721464
 21
-111.6933307004019
 31
0.0
  0
LINE
  5
A9
330
47
100
AcDbEntity
  8
0
  6
Continuous
 62
     7
100
AcDbLine
 10
-75.29176927224948
 20
-111.2847221883668
 30
0.0
 11
-75.50111338891782
 21
-111.1034248651996
 31
0.0
  0
LINE
  5
AA
330
47
100
AcDbEntity
  8
0
  6
Continuous
 62
     7
100
AcDbLine
 10
-75.50111338891782
 20
-111.1034248651996
 30
0.0
 11
-75.74823603538478
 21
-111.0306416835265
 31
0.0
  0
LINE
  5
AB
330
47
100
AcDbEntity
  8
0
  6
Continuous
 62
     7
100
AcDbLine
 10
-75.48541885721396
 20
-111.603727037699
 30
0.0
 11
-76.66440910665814
 21
-110.9474723835307
 31
0.0
  0
LINE
  5
AC
330
47
100
AcDbEntity
  8
0
  6
Continuous
 62
     7
100
AcDbLine
 10
-75.48541885721396
 20
-111.603727037699
 30
0.0
 11
-75.48541885721464
 21
-111.9531383215358
 31
0.0
  0
LINE
  5
AD
330
47
100
AcDbEntity
  8
0
  6
Continuous
 62
     7
100
AcDbLine
 10
-75.48541885721464
 20
-111.9531383215358
 30
0.0
 11
-79.81554587623347
 21
-110.7031383215062
 31
0.0
  0
LINE
  5
AE
330
47
100
AcDbEntity
  8
0
  6
Continuous
 62
     7
100
AcDbLine
 10
-79.81554587623212
 20
-110.0103179984673
 30
0.0
 11
-79.51554587623212
 21
-109.7505103773333
 31
0.0
  0
LINE
  5
AF
330
47
100
AcDbEntity
  8
0
  6
Continuous
 62
     7
100
AcDbLine
 10
-79.81554587623212
 20
-110.0103179984673
 30
0.0
 11
-79.81554587623347
 21
-110.7031383215062
 31
0.0
  0
LINE
  5
B0
330
47
100
AcDbEntity
  8
0
  6
Continuous
 62
     7
100
AcDbLine
 10
-64.51440910665812
 20
-100.4252637276641
 30
0.0
 11
-67.66554587623213
 21
-99.4881093426007
 31
0.0
  0
LINE
  5
B1
330
47
100
AcDbEntity
  8
0
  6
Continuous
 62
     7
100
AcDbLine
 10
-67.66554587623213
 20
-99.4881093426007
 30
0.0
 11
-67.36554587623212
 21
-99.22830172146674
 31
0.0
  0
LINE
  5
B2
330
47
100
AcDbEntity
  8
0
  6
Continuous
 62
     7
100
AcDbLine
 10
-67.66554587623583
 20
-101.3933652309488
 30
0.0
 11
-64.51440910667102
 21
-102.2755205080531
 31
0.0
  0
LINE
  5
B3
330
47
100
AcDbEntity
  8
0
  6
Continuous
 62
     7
100
AcDbLine
 10
-67.36554587623212
 20
-99.22830172146674
 30
0.0
 11
-64.21440910665812
 21
-100.1654561065302
 31
0.0
  0
LINE
  5
B4
330
47
100
AcDbEntity
  8
0
  6
Continuous
 62
     7
100
AcDbLine
 10
-70.90455624566972
 20
-99.88099319554325
 30
0.0
 11
-71.62946554274474
 21
-99.68478866256802
 31
0.0
  0
LINE
  5
B5
330
47
100
AcDbEntity
  8
0
  6
Continuous
 62
     7
100
AcDbLine
 10
-72.07470242101799
 20
-100.0703751098699
 30
0.0
 11
-71.30455626703632
 21
-100.2274033744575
 31
0.0
  0
LINE
  5
B6
330
47
100
AcDbEntity
  8
0
  6
Continuous
 62
     7
100
AcDbLine
 10
-71.62946554274474
 20
-99.68478866256802
 30
0.0
 11
-71.62946554274698
 21
-100.1611562868934
 31
0.0
  0
LINE
  5
B7
330
47
100
AcDbEntity
  8
0
  6
Continuous
 62
     7
100
AcDbLine
 10
-69.59315388411463
 20
-106.8502871690583
 30
0.0
 11
-69.41041885721462
 21
-106.6920339936025
 31
0.0
  0
LINE
  5
B8
330
47
100
AcDbEntity
  8
0
  6
Continuous
 62
     7
100
AcDbLine
 10
-70.59001300132083
 20
-106.8502871690569
 30
0.0
 11
-69.59315388411463
 21
-106.8502871690583
 31
0.0
  0
LINE
  5
B9
330
47
100
AcDbEntity
  8
0
  6
Continuous
 62
     7
100
AcDbLine
 10
-70.33635848091512
 20
-107.5418695486203
 30
0.0
 11
-70.33635848092642
 21
-109.9561375206801
 31
0.0
  0
LINE
  5
BA
330
47
100
AcDbEntity
  8
0
  6
Continuous
 62
     7
100
AcDbLine
 10
-70.33635848087982
 20
-100.0546522634562
 30
0.0
 11
-70.33635848090502
 21
-105.4125975965517
 31
0.0
  0
LINE
  5
BB
330
47
100
AcDbEntity
  8
0
  6
Continuous
 62
     7
100
AcDbLine
 10
-69.41041885721393
 20
-106.3426227097656
 30
0.0
 11
-70.58940910665812
 21
-105.6863680555974
 31
0.0
  0
LINE
  5
BC
330
47
100
AcDbEntity
  8
0
  6
Continuous
 62
     7
100
AcDbLine
 10
-70.76973327157353
 20
-109.8677749534542
 30
0.0
 11
-70.33635848092642
 21
-109.9561375206801
 31
0.0
  0
LINE
  5
BD
330
47
100
AcDbEntity
  8
0
  6
Continuous
 62
     7
100
AcDbLine
 10
-71.30455626703632
 20
-100.2274033744575
 30
0.0
 11
-70.76973327152912
 21
-100.4299658415339
 31
0.0
  0
LINE
  5
BE
330
47
100
AcDbEntity
  8
0
  6
Continuous
 62
     7
100
AcDbLine
 10
-67.66554587623213
 20
-99.4881093426007
 30
0.0
 11
-67.66554587623342
 21
-100.1809296656396
 31
0.0
  0
LINE
  5
BF
330
47
100
AcDbEntity
  8
0
  6
Continuous
 62
     7
100
AcDbLine
 10
-69.41041885721633
 20
-107.5610605197082
 30
0.0
 11
-69.11041885721633
 21
-107.3012528985743
 31
0.0
  0
LINE
  5
C0
330
47
100
AcDbEntity
  8
0
  6
Continuous
 62
     7
100
AcDbLine
 10
-67.66554587623553
 20
-101.2175552146876
 30
0.0
 11
-67.66554587623583
 21
-101.3933652309488
 31
0.0
  0
LINE
  5
C1
330
47
100
AcDbEntity
  8
0
  6
Continuous
 62
     7
100
AcDbLine
 10
-79.51554587623212
 20
-109.7505103773333
 30
0.0
 11
-76.36440910665814
 21
-110.6876647623968
 31
0.0
  0
LINE
  5
C2
330
47
100
AcDbEntity
  8
0
  6
Continuous
 62
     7
100
AcDbLine
 10
-76.47409112593184
 20
-108.2978984729178
 30
0.0
 11
-76.47409112589057
 21
-110.6550451102513
 31
0.0
  0
LINE
  5
C3
330
47
100
AcDbEntity
  8
0
  6
Continuous
 62
     7
100
AcDbLine
 10
-76.41135848087985
 20
-105.3157565913895
 30
0.0
 11
-76.41135848090506
 21
-110.673701924485
 31
0.0
  0
LINE
  5
C4
330
47
100
AcDbEntity
  8
0
  6
Continuous
 62
     7
100
AcDbLine
 10
-76.84473327155197
 20
-110.544815393963
 30
0.0
 11
-76.84473327152914
 21
-105.6910701694672
 31
0.0
  0
LINE
  5
C5
330
47
100
AcDbEntity
  8
0
  6
Continuous
 62
     7
100
AcDbLine
 10
-76.47409112593184
 20
-108.2978984729178
 30
0.0
 11
-76.84473327154274
 21
-108.5825328145791
 31
0.0
  0
LINE
  5
C6
330
47
100
AcDbEntity
  8
0
  6
Continuous
 62
     7
100
AcDbLine
 10
-76.47409112593184
 20
-108.2978984729178
 30
0.0
 11
-76.84473327154106
 21
-108.2223267227905
 31
0.0
  0
LINE
  5
C7
330
47
100
AcDbEntity
  8
0
  6
Continuous
 62
     7
100
AcDbLine
 10
-76.97955591812863
 20
-105.1420976302515
 30
0.0
 11
-77.70446554274474
 21
-104.9458929905013
 31
0.0
  0
LINE
  5
C8
330
47
100
AcDbEntity
  8
0
  6
Continuous
 62
     7
100
AcDbLine
 10
-73.74054587623348
 20
-105.4420339935729
 30
0.0
 11
-74.19054587621928
 21
-105.8317454252615
 31
0.0
  0
LINE
  5
C9
330
47
100
AcDbEntity
  8
0
  6
Continuous
 62
     7
100
AcDbLine
 10
-74.19054587622028
 20
-106.3513606675328
 30
0.0
 11
-74.19054587621928
 21
-105.8317454252615
 31
0.0
  0
LINE
  5
CA
330
47
100
AcDbEntity
  8
0
  6
Continuous
 62
     7
100
AcDbLine
 10
-77.37955592932478
 20
-105.4885077712781
 30
0.0
 11
-76.84473327152914
 21
-105.6910701694672
 31
0.0
  0
LINE
  5
CB
330
47
100
AcDbEntity
  8
0
  6
Continuous
 62
     7
100
AcDbLine
 10
-76.97955591813096
 20
-105.6400065249009
 30
0.0
 11
-76.97955591812863
 21
-105.1420976302515
 31
0.0
  0
LINE
  5
CC
330
47
100
AcDbEntity
  8
0
  6
Continuous
 62
     7
100
AcDbLine
 10
-76.41135848087985
 20
-105.3157565913895
 30
0.0
 11
-76.97955591812863
 21
-105.1420976302515
 31
0.0
  0
LINE
  5
CD
330
47
100
AcDbEntity
  8
0
  6
Continuous
 62
     7
100
AcDbLine
 10
-76.66440910665814
 20
-110.9474723835307
 30
0.0
 11
-79.81554587623212
 21
-110.0103179984673
 31
0.0
  0
LINE
  5
CE
330
47
100
AcDbEntity
  8
0
  6
Continuous
 62
     7
100
AcDbLine
 10
-70.59001300132182
 20
-107.3699024113282
 30
0.0
 11
-74.19054587622028
 21
-106.3513606675328
 31
0.0
  0
LINE
  5
CF
330
47
100
AcDbEntity
  8
0
  6
Continuous
 62
     7
100
AcDbLine
 10
-73.74054587623213
 20
-104.7492136705348
 30
0.0
 11
-73.44054587623214
 21
-104.4894060494009
 31
0.0
  0
LINE
  5
D0
330
47
100
AcDbEntity
  8
0
  6
Continuous
 62
     7
100
AcDbLine
 10
-70.58940910665812
 20
-105.6863680555974
 30
0.0
 11
-73.74054587623213
 21
-104.7492136705348
 31
0.0
  0
LINE
  5
D1
330
47
100
AcDbEntity
  8
0
  6
Continuous
 62
     7
100
AcDbLine
 10
-73.44054587623214
 20
-104.4894060494009
 30
0.0
 11
-70.28940910665813
 21
-105.4265604344635
 31
0.0
  0
LINE
  5
D2
330
47
100
AcDbEntity
  8
0
  6
Continuous
 62
     7
100
AcDbLine
 10
-73.74054587623213
 20
-104.7492136705348
 30
0.0
 11
-73.74054587623348
 21
-105.4420339935729
 31
0.0
  0
LINE
  5
D3
330
47
100
AcDbEntity
  8
0
  6
Continuous
 62
     7
100
AcDbLine
 10
-73.74054587623583
 20
-106.654469558883
 30
0.0
 11
-70.58940910667103
 21
-107.5366248359864
 31
0.0
  0
LINE
  5
D4
330
47
100
AcDbEntity
  8
0
  6
Continuous
 62
     7
100
AcDbLine
 10
-73.74054587623549
 20
-106.4786595426209
 30
0.0
 11
-73.74054587623583
 21
-106.654469558883
 31
0.0
  0
LINE
  5
D5
330
47
100
AcDbEntity
  8
0
  6
Continuous
 62
     7
100
AcDbLine
 10
-69.59315388411562
 20
-107.3699024113296
 30
0.0
 11
-70.59001300132182
 21
-107.3699024113282
 31
0.0
  0
LINE
  5
D6
330
47
100
AcDbEntity
  8
0
  6
Continuous
 62
     7
100
AcDbLine
 10
-70.59001300132182
 20
-107.3699024113282
 30
0.0
 11
-70.59001300132083
 21
-106.8502871690569
 31
0.0
  0
LINE
  5
D7
330
47
100
AcDbEntity
  8
0
  6
Continuous
 62
     7
100
AcDbLine
 10
-70.58940910665812
 20
-105.6863680555974
 30
0.0
 11
-70.28940910665813
 21
-105.4265604344635
 31
0.0
  0
LINE
  5
D8
330
47
100
AcDbEntity
  8
0
  6
Continuous
 62
     7
100
AcDbLine
 10
-70.39909112602862
 20
-103.0367941447669
 30
0.0
 11
-70.39909112598733
 21
-105.3939407822892
 31
0.0
  0
LINE
  5
D9
330
47
100
AcDbEntity
  8
0
  6
Continuous
 62
     7
100
AcDbLine
 10
-70.58940910667103
 20
-107.5366248359864
 30
0.0
 11
-69.41041885721633
 21
-107.5610605197082
 31
0.0
  0
LINE
  5
DA
330
47
100
AcDbEntity
  8
0
  6
Continuous
 62
     7
100
AcDbLine
 10
-74.19054587621928
 20
-105.8317454252615
 30
0.0
 11
-70.59001300132083
 21
-106.8502871690569
 31
0.0
  0
LINE
  5
DB
330
47
100
AcDbEntity
  8
0
  6
Continuous
 62
     7
100
AcDbLine
 10
-70.90455591813092
 20
-100.3789021969676
 30
0.0
 11
-70.90455624566972
 21
-99.88099319554325
 31
0.0
  0
LINE
  5
DC
330
47
100
AcDbEntity
  8
0
  6
Continuous
 62
     7
100
AcDbLine
 10
-67.66554587623342
 20
-100.1809296656396
 30
0.0
 11
-68.11554587621873
 21
-100.5706410973278
 31
0.0
  0
LINE
  5
DD
330
47
100
AcDbEntity
  8
0
  6
Continuous
 62
     7
100
AcDbLine
 10
-70.33635848087982
 20
-100.0546522634562
 30
0.0
 11
-70.90455624566972
 21
-99.88099319554325
 31
0.0
  0
LINE
  5
DE
330
47
100
AcDbEntity
  8
0
  6
Continuous
 62
     7
100
AcDbLine
 10
-69.42611338891783
 20
-105.8423205372663
 30
0.0
 11
-69.67323603538483
 21
-105.7695373555931
 31
0.0
  0
LINE
  5
DF
330
47
100
AcDbEntity
  8
0
  6
Continuous
 62
     7
100
AcDbLine
 10
-69.21676927224942
 20
-106.0236178604336
 30
0.0
 11
-69.42611338891783
 21
-105.8423205372663
 31
0.0
  0
LINE
  5
E0
330
47
100
AcDbEntity
  8
0
  6
Continuous
 62
     7
100
AcDbLine
 10
-69.59315388411562
 20
-107.3699024113296
 30
0.0
 11
-69.41041885721563
 21
-107.2116492358738
 31
0.0
  0
LINE
  5
E1
330
47
100
AcDbEntity
  8
0
  6
Continuous
 62
     7
100
AcDbLine
 10
-69.59315388411463
 20
-106.8502871690583
 30
0.0
 11
-69.59315388411562
 21
-107.3699024113296
 31
0.0
  0
LINE
  5
E2
330
47
100
AcDbEntity
  8
0
  6
Continuous
 62
     7
100
AcDbLine
 10
-69.41041885721393
 20
-106.3426227097656
 30
0.0
 11
-69.41041885721462
 21
-106.6920339936025
 31
0.0
  0
LINE
  5
E3
330
47
100
AcDbEntity
  8
0
  6
Continuous
 62
     7
100
AcDbLine
 10
-69.11041885721393
 20
-106.0828150886317
 30
0.0
 11
-69.11041885721463
 21
-106.4322263724686
 31
0.0
  0
LINE
  5
E4
330
47
100
AcDbEntity
  8
0
  6
Continuous
 62
     7
100
AcDbLine
 10
-68.92768383031563
 20
-106.7935884392841
 30
0.0
 11
-69.11041885721562
 21
-106.9518416147399
 31
0.0
  0
LINE
  5
E5
330
47
100
AcDbEntity
  8
0
  6
Continuous
 62
     7
100
AcDbLine
 10
-68.92768383031563
 20
-106.7935884392841
 30
0.0
 11
-68.92768383031462
 21
-106.2739731970128
 31
0.0
  0
LINE
  5
E6
330
47
100
AcDbEntity
  8
0
  6
Continuous
 62
     7
100
AcDbLine
 10
-69.11041885721633
 20
-107.3012528985743
 30
0.0
 11
-69.11041885721562
 21
-106.9518416147399
 31
0.0
  0
LINE
  5
E7
330
47
100
AcDbEntity
  8
0
  6
Continuous
 62
     7
100
AcDbLine
 10
-69.41041885721633
 20
-107.5610605197082
 30
0.0
 11
-69.41041885721563
 21
-107.2116492358738
 31
0.0
  0
LINE
  5
E8
330
47
100
AcDbEntity
  8
0
  6
Continuous
 62
     7
100
AcDbLine
 10
-68.92768383031462
 20
-106.2739731970128
 30
0.0
 11
-69.11041885721403
 21
-106.115720021557
 31
0.0
  0
LINE
  5
E9
330
47
100
AcDbEntity
  8
0
  6
Continuous
 62
     7
100
AcDbLine
 10
-68.11554587622022
 20
-101.0902563395995
 30
0.0
 11
-68.11554587621873
 21
-100.5706410973278
 31
0.0
  0
LINE
  5
EA
330
47
100
AcDbEntity
  8
0
  6
Continuous
 62
     7
100
AcDbLine
 10
-69.11041885721393
 20
-106.0828150886317
 30
0.0
 11
-69.41041885721393
 21
-106.3426227097656
 31
0.0
  0
LINE
  5
EB
330
47
100
AcDbEntity
  8
0
  6
Continuous
 62
     7
100
AcDbLine
 10
-68.92768383031462
 20
-106.2739731970128
 30
0.0
 11
-69.11041885721463
 21
-106.4322263724686
 31
0.0
  0
LINE
  5
EC
330
47
100
AcDbEntity
  8
0
  6
Continuous
 62
     7
100
AcDbLine
 10
-70.28940910665813
 20
-105.4265604344635
 30
0.0
 11
-69.11041885721393
 21
-106.0828150886317
 31
0.0
  0
LINE
  5
ED
330
47
100
AcDbEntity
  8
0
  6
Continuous
 62
     7
100
AcDbLine
 10
-68.11554587621873
 20
-100.5706410973278
 30
0.0
 11
-64.51501300132082
 21
-101.5891828411236
 31
0.0
  0
LINE
  5
EE
330
47
100
AcDbEntity
  8
0
  6
Continuous
 62
     7
100
AcDbLine
 10
-64.51501300132182
 20
-102.1087980833948
 30
0.0
 11
-68.11554587622022
 21
-101.0902563395995
 31
0.0
  0
LINE
  5
EF
330
47
100
AcDbEntity
  8
0
  6
Continuous
 62
     7
100
AcDbLine
 10
-70.33635848092642
 20
-109.9561375206801
 30
0.0
 11
-64.69473327157573
 21
-105.0703467708245
 31
0.0
  0
LINE
  5
F0
330
47
100
AcDbEntity
  8
0
  6
Continuous
 62
     7
100
AcDbLine
 10
-69.41041885721462
 20
-106.6920339936025
 30
0.0
 11
-73.74054587623348
 21
-105.4420339935729
 31
0.0
  0
LINE
  5
F1
330
47
100
AcDbEntity
  8
0
  6
Continuous
 62
     7
100
AcDbLine
 10
-63.33541885721462
 20
-101.4309296656692
 30
0.0
 11
-67.66554587623342
 21
-100.1809296656396
 31
0.0
  0
LINE
  5
F2
330
47
100
AcDbEntity
  8
0
  6
Continuous
 62
     7
100
AcDbLine
 10
-77.70446554274474
 20
-104.9458929905013
 30
0.0
 11
-72.07470242101799
 21
-100.0703751098699
 31
0.0
  0
LINE
  5
F3
330
47
100
AcDbEntity
  8
0
  6
Continuous
 62
     7
100
AcDbLine
 10
-83.05455591812859
 20
-110.4032019581874
 30
0.0
 11
-77.37955592932478
 21
-105.4885077712781
 31
0.0
  0
LINE
  5
F4
330
47
100
AcDbEntity
  8
0
  6
Continuous
 62
     7
100
AcDbLine
 10
-76.84473327152914
 20
-105.6910701694672
 30
0.0
 11
-82.48635848087986
 21
-110.5768609193228
 31
0.0
  0
LINE
  5
F5
330
47
100
AcDbEntity
  8
0
  6
Continuous
 62
     7
100
AcDbLine
 10
-70.76973327152912
 20
-100.4299658415339
 30
0.0
 11
-76.41135848087985
 21
-105.3157565913895
 31
0.0
  0
LINE
  5
F6
330
47
100
AcDbEntity
  8
0
  6
Continuous
 62
     7
100
AcDbLine
 10
-76.97955591812863
 20
-105.1420976302515
 30
0.0
 11
-71.30455626703632
 21
-100.2274033744575
 31
0.0
  0
LINE
  5
F7
330
47
100
AcDbEntity
  8
0
  6
Continuous
 62
     7
100
AcDbLine
 10
-76.41135848092645
 20
-115.2172418486134
 30
0.0
 11
-70.76973327157573
 21
-110.3314510987578
 31
0.0
  0
LINE
  5
F8
330
47
100
AcDbEntity
  8
0
  6
Continuous
 62
     7
100
AcDbLine
 10
-51.18541885721632
 20
-91.7777475359083
 30
0.0
 11
-51.18541885721562
 21
-91.4283362520739
 31
0.0
  0
LINE
  5
F9
330
47
100
AcDbEntity
  8
0
  6
Continuous
 62
     7
100
AcDbLine
 10
-52.36440910667102
 20
-91.75331185218648
 30
0.0
 11
-51.18541885721632
 21
-91.7777475359083
 31
0.0
  0
LINE
  5
FA
330
47
100
AcDbEntity
  8
0
  6
Continuous
 62
     7
100
AcDbLine
 10
-51.36815388411462
 20
-91.0669741852584
 30
0.0
 11
-51.18541885721463
 21
-90.90872100980262
 31
0.0
  0
LINE
  5
FB
330
47
100
AcDbEntity
  8
0
  6
Continuous
 62
     7
100
AcDbLine
 10
-64.82955624566972
 20
-94.61988886751273
 30
0.0
 11
-65.55446554274472
 21
-94.42368433463473
 31
0.0
  0
LINE
  5
FC
330
47
100
AcDbEntity
  8
0
  6
Continuous
 62
     7
100
AcDbLine
 10
-65.55446554274472
 20
-94.42368433463473
 30
0.0
 11
-65.55446554274702
 21
-94.9000519589601
 31
0.0
  0
LINE
  5
FD
330
47
100
AcDbEntity
  8
0
  6
Continuous
 62
     7
100
AcDbLine
 10
-59.92470242101803
 20
-89.54816645400327
 30
0.0
 11
-59.15455592190013
 21
-89.705194824108
 31
0.0
  0
LINE
  5
FE
330
47
100
AcDbEntity
  8
0
  6
Continuous
 62
     7
100
AcDbLine
 10
-78.14970242101799
 20
-105.3314794378032
 30
0.0
 11
-77.37955592932478
 21
-105.4885077712781
 31
0.0
  0
LINE
  5
FF
330
47
100
AcDbEntity
  8
0
  6
Continuous
 62
     7
100
AcDbLine
 10
-77.70446554274474
 20
-104.9458929905013
 30
0.0
 11
-77.70446554274699
 21
-105.4222606148267
 31
0.0
  0
LINE
  5
100
330
47
100
AcDbEntity
  8
0
  6
Continuous
 62
     7
100
AcDbLine
 10
-70.39909112602862
 20
-103.0367941447669
 30
0.0
 11
-70.76973327154272
 21
-103.3214284863539
 31
0.0
  0
LINE
  5
101
330
47
100
AcDbEntity
  8
0
  6
Continuous
 62
     7
100
AcDbLine
 10
-70.39909112602862
 20
-103.0367941447669
 30
0.0
 11
-70.76973327154103
 21
-102.9612223946593
 31
0.0
  0
LINE
  5
102
330
47
100
AcDbEntity
  8
0
  6
Continuous
 62
     7
100
AcDbLine
 10
-83.05455591812859
 20
-110.4032019581874
 30
0.0
 11
-83.77946554274475
 21
-110.2069973184347
 31
0.0
  0
LINE
  5
103
330
47
100
AcDbEntity
  8
0
  6
Continuous
 62
     7
100
AcDbLine
 10
-70.76973327157573
 20
-110.3314510987578
 30
0.0
 11
-70.76973327156233
 21
-107.4861433985621
 31
0.0
  0
LINE
  5
104
330
47
100
AcDbEntity
  8
0
  6
Continuous
 62
     7
100
AcDbLine
 10
-70.76973327155203
 20
-105.2837110660297
 30
0.0
 11
-70.76973327152912
 21
-100.4299658415339
 31
0.0
  0
LINE
  5
105
330
47
100
AcDbEntity
  8
0
  6
Continuous
 62
     7
100
AcDbLine
 10
-61.59054587623552
 20
-95.9564508867543
 30
0.0
 11
-61.59054587623582
 21
-96.13226090301634
 31
0.0
  0
LINE
  5
106
330
47
100
AcDbEntity
  8
0
  6
Continuous
 62
     7
100
AcDbLine
 10
-62.04054587622022
 20
-95.82915201166617
 30
0.0
 11
-62.04054587621923
 21
-95.30953676939487
 31
0.0
  0
LINE
  5
107
330
47
100
AcDbEntity
  8
0
  6
Continuous
 62
     7
100
AcDbLine
 10
-61.59054587623342
 20
-94.91982533770626
 30
0.0
 11
-62.04054587621923
 21
-95.30953676939487
 31
0.0
  0
LINE
  5
108
330
47
100
AcDbEntity
  8
0
  6
Continuous
 62
     7
100
AcDbLine
 10
-62.04054587621923
 20
-95.30953676939487
 30
0.0
 11
-58.44001300132082
 21
-96.32807851319025
 31
0.0
  0
LINE
  5
109
330
47
100
AcDbEntity
  8
0
  6
Continuous
 62
     7
100
AcDbLine
 10
-58.44001300132183
 20
-96.84769375546155
 30
0.0
 11
-62.04054587622022
 21
-95.82915201166617
 31
0.0
  0
LINE
  5
10A
330
47
100
AcDbEntity
  8
0
  6
Continuous
 62
     7
100
AcDbLine
 10
-57.26041885721463
 20
-96.16982533773592
 30
0.0
 11
-61.59054587623342
 21
-94.91982533770626
 31
0.0
  0
LINE
  5
10B
330
47
100
AcDbEntity
  8
0
  6
Continuous
 62
     7
100
AcDbLine
 10
-61.59054587623582
 20
-96.13226090301634
 30
0.0
 11
-58.43940910667102
 21
-97.01441618011978
 31
0.0
  0
LINE
  5
10C
330
47
100
AcDbEntity
  8
0
  6
Continuous
 62
     7
100
AcDbLine
 10
-64.32409112603132
 20
-97.77568981683773
 30
0.0
 11
-64.69473327154103
 21
-97.70011806673071
 31
0.0
  0
LINE
  5
10D
330
47
100
AcDbEntity
  8
0
  6
Continuous
 62
     7
100
AcDbLine
 10
-64.32409112603132
 20
-97.77568981683773
 30
0.0
 11
-64.69473327154273
 21
-98.06032415842259
 31
0.0
  0
LINE
  5
10E
330
47
100
AcDbEntity
  8
0
  6
Continuous
 62
     7
100
AcDbLine
 10
-64.26135848087982
 20
-94.79354793552287
 30
0.0
 11
-64.82955624566972
 21
-94.61988886751273
 31
0.0
  0
LINE
  5
10F
330
47
100
AcDbEntity
  8
0
  6
Continuous
 62
     7
100
AcDbLine
 10
-65.99970242101803
 20
-94.80927078193656
 30
0.0
 11
-65.22955626706162
 21
-94.96629904654915
 31
0.0
  0
LINE
  5
110
330
47
100
AcDbEntity
  8
0
  6
Continuous
 62
     7
100
AcDbLine
 10
-64.82955591813092
 20
-95.11779786903435
 30
0.0
 11
-64.82955624566972
 21
-94.61988886751273
 31
0.0
  0
LINE
  5
111
330
47
100
AcDbEntity
  8
0
  6
Continuous
 62
     7
100
AcDbLine
 10
-58.61973327157573
 20
-99.80924244289116
 30
0.0
 11
-58.61973327156233
 21
-96.9639347426955
 31
0.0
  0
LINE
  5
112
330
47
100
AcDbEntity
  8
0
  6
Continuous
 62
     7
100
AcDbLine
 10
-58.61973327157352
 20
-99.34556629758755
 30
0.0
 11
-58.18635848092643
 21
-99.43392886481345
 31
0.0
  0
LINE
  5
113
330
47
100
AcDbEntity
  8
0
  6
Continuous
 62
     7
100
AcDbLine
 10
-56.77768383031562
 20
-96.2713797834175
 30
0.0
 11
-56.77768383031463
 21
-95.75176454114622
 31
0.0
  0
LINE
  5
114
330
47
100
AcDbEntity
  8
0
  6
Continuous
 62
     7
100
AcDbLine
 10
-56.96041885721392
 20
-95.5606064327651
 30
0.0
 11
-56.96041885721462
 21
-95.91001771660197
 31
0.0
  0
LINE
  5
115
330
47
100
AcDbEntity
  8
0
  6
Continuous
 62
     7
100
AcDbLine
 10
-56.77768383031463
 20
-95.75176454114622
 30
0.0
 11
-56.96041885721462
 21
-95.91001771660197
 31
0.0
  0
LINE
  5
116
330
47
100
AcDbEntity
  8
0
  6
Continuous
 62
     7
100
AcDbLine
 10
-56.96041885721633
 20
-96.77904424270767
 30
0.0
 11
-56.96041885721563
 21
-96.42963295887327
 31
0.0
  0
LINE
  5
117
330
47
100
AcDbEntity
  8
0
  6
Continuous
 62
     7
100
AcDbLine
 10
-57.44315388411462
 20
-96.3280785131917
 30
0.0
 11
-57.44315388411563
 21
-96.847693755463
 31
0.0
  0
LINE
  5
118
330
47
100
AcDbEntity
  8
0
  6
Continuous
 62
     7
100
AcDbLine
 10
-56.96041885721392
 20
-95.5606064327651
 30
0.0
 11
-57.26041885721392
 21
-95.82041405389904
 31
0.0
  0
LINE
  5
119
330
47
100
AcDbEntity
  8
0
  6
Continuous
 62
     7
100
AcDbLine
 10
-56.77768383031562
 20
-96.2713797834175
 30
0.0
 11
-56.96041885721563
 21
-96.42963295887327
 31
0.0
  0
LINE
  5
11A
330
47
100
AcDbEntity
  8
0
  6
Continuous
 62
     7
100
AcDbLine
 10
-56.77768383031463
 20
-95.75176454114622
 30
0.0
 11
-56.96041885721402
 21
-95.59351136569045
 31
0.0
  0
LINE
  5
11B
330
47
100
AcDbEntity
  8
0
  6
Continuous
 62
     7
100
AcDbLine
 10
-57.44315388411563
 20
-96.847693755463
 30
0.0
 11
-57.26041885721563
 21
-96.68944058000721
 31
0.0
  0
LINE
  5
11C
330
47
100
AcDbEntity
  8
0
  6
Continuous
 62
     7
100
AcDbLine
 10
-57.44315388411563
 20
-96.847693755463
 30
0.0
 11
-58.44001300132183
 21
-96.84769375546155
 31
0.0
  0
LINE
  5
11D
330
47
100
AcDbEntity
  8
0
  6
Continuous
 62
     7
100
AcDbLine
 10
-58.43940910667102
 20
-97.01441618011978
 30
0.0
 11
-57.26041885721632
 21
-97.03885186384161
 31
0.0
  0
LINE
  5
11E
330
47
100
AcDbEntity
  8
0
  6
Continuous
 62
     7
100
AcDbLine
 10
-57.26041885721632
 20
-97.03885186384161
 30
0.0
 11
-57.26041885721563
 21
-96.68944058000721
 31
0.0
  0
LINE
  5
11F
330
47
100
AcDbEntity
  8
0
  6
Continuous
 62
     7
100
AcDbLine
 10
-57.26041885721632
 20
-97.03885186384161
 30
0.0
 11
-56.96041885721633
 21
-96.77904424270767
 31
0.0
  0
LINE
  5
120
330
47
100
AcDbEntity
  8
0
  6
Continuous
 62
     7
100
AcDbLine
 10
-57.26041885721392
 20
-95.82041405389904
 30
0.0
 11
-57.26041885721463
 21
-96.16982533773592
 31
0.0
  0
LINE
  5
121
330
47
100
AcDbEntity
  8
0
  6
Continuous
 62
     7
100
AcDbLine
 10
-57.27611338891782
 20
-95.32011188139964
 30
0.0
 11
-57.52323603538483
 21
-95.24732869972654
 31
0.0
  0
LINE
  5
122
330
47
100
AcDbEntity
  8
0
  6
Continuous
 62
     7
100
AcDbLine
 10
-57.06676927224943
 20
-95.50140920456694
 30
0.0
 11
-57.27611338891782
 21
-95.32011188139964
 31
0.0
  0
LINE
  5
123
330
47
100
AcDbEntity
  8
0
  6
Continuous
 62
     7
100
AcDbLine
 10
-57.44315388411462
 20
-96.3280785131917
 30
0.0
 11
-57.26041885721463
 21
-96.16982533773592
 31
0.0
  0
LINE
  5
124
330
47
100
AcDbEntity
  8
0
  6
Continuous
 62
     7
100
AcDbLine
 10
-58.13940910665812
 20
-94.90435177859688
 30
0.0
 11
-56.96041885721392
 21
-95.5606064327651
 31
0.0
  0
LINE
  5
125
330
47
100
AcDbEntity
  8
0
  6
Continuous
 62
     7
100
AcDbLine
 10
-57.26041885721392
 20
-95.82041405389904
 30
0.0
 11
-58.43940910665812
 21
-95.16415939973082
 31
0.0
  0
LINE
  5
126
330
47
100
AcDbEntity
  8
0
  6
Continuous
 62
     7
100
AcDbLine
 10
-58.44001300132183
 20
-96.84769375546155
 30
0.0
 11
-58.44001300132082
 21
-96.32807851319025
 31
0.0
  0
LINE
  5
127
330
47
100
AcDbEntity
  8
0
  6
Continuous
 62
     7
100
AcDbLine
 10
-58.43940910665812
 20
-95.16415939973082
 30
0.0
 11
-58.13940910665812
 21
-94.90435177859688
 31
0.0
  0
LINE
  5
128
330
47
100
AcDbEntity
  8
0
  6
Continuous
 62
     7
100
AcDbLine
 10
-58.44001300132082
 20
-96.32807851319025
 30
0.0
 11
-57.44315388411462
 21
-96.3280785131917
 31
0.0
  0
LINE
  5
129
330
47
100
AcDbEntity
  8
0
  6
Continuous
 62
     7
100
AcDbLine
 10
-58.18635848092643
 20
-99.43392886481345
 30
0.0
 11
-52.54473327157572
 21
-94.54813811495787
 31
0.0
  0
LINE
  5
12A
330
47
100
AcDbEntity
  8
0
  6
Continuous
 62
     7
100
AcDbLine
 10
-64.69473327152913
 20
-95.16886151360058
 30
0.0
 11
-70.33635848087982
 21
-100.0546522634562
 31
0.0
  0
LINE
  5
12B
330
47
100
AcDbEntity
  8
0
  6
Continuous
 62
     7
100
AcDbLine
 10
-71.62946554274474
 20
-99.68478866256802
 30
0.0
 11
-65.99970242101803
 21
-94.80927078193656
 31
0.0
  0
LINE
  5
12C
330
47
100
AcDbEntity
  8
0
  6
Continuous
 62
     7
100
AcDbLine
 10
-83.77946554274475
 20
-110.2069973184347
 30
0.0
 11
-78.14970242101799
 21
-105.3314794378032
 31
0.0
  0
LINE
  5
12D
330
47
100
AcDbEntity
  8
0
  6
Continuous
 62
     7
100
AcDbLine
 10
-50.70268383031562
 20
-91.0102754554842
 30
0.0
 11
-50.88541885721563
 21
-91.16852863093996
 31
0.0
  0
LINE
  5
12E
330
47
100
AcDbEntity
  8
0
  6
Continuous
 62
     7
100
AcDbLine
 10
-50.70268383031562
 20
-91.0102754554842
 30
0.0
 11
-50.70268383031463
 21
-90.4906602132129
 31
0.0
  0
LINE
  5
12F
330
47
100
AcDbEntity
  8
0
  6
Continuous
 62
     7
100
AcDbLine
 10
-50.99176927224943
 20
-90.24030487663366
 30
0.0
 11
-51.20111338891782
 21
-90.05900755346634
 31
0.0
  0
LINE
  5
130
330
47
100
AcDbEntity
  8
0
  6
Continuous
 62
     7
100
AcDbLine
 10
-50.88541885721392
 20
-90.29950210483179
 30
0.0
 11
-50.88541885721463
 21
-90.64891338866867
 31
0.0
  0
LINE
  5
131
330
47
100
AcDbEntity
  8
0
  6
Continuous
 62
     7
100
AcDbLine
 10
-50.88541885721392
 20
-90.29950210483179
 30
0.0
 11
-51.18541885721393
 21
-90.55930972596575
 31
0.0
  0
LINE
  5
132
330
47
100
AcDbEntity
  8
0
  6
Continuous
 62
     7
100
AcDbLine
 10
-50.70268383031463
 20
-90.4906602132129
 30
0.0
 11
-50.88541885721402
 21
-90.33240703775714
 31
0.0
  0
LINE
  5
133
330
47
100
AcDbEntity
  8
0
  6
Continuous
 62
     7
100
AcDbLine
 10
-50.70268383031463
 20
-90.4906602132129
 30
0.0
 11
-50.88541885721463
 21
-90.64891338866867
 31
0.0
  0
LINE
  5
134
330
47
100
AcDbEntity
  8
0
  6
Continuous
 62
     7
100
AcDbLine
 10
-59.15455592190013
 20
-89.705194824108
 30
0.0
 11
-58.61973327152913
 21
-89.90775718566726
 31
0.0
  0
LINE
  5
135
330
47
100
AcDbEntity
  8
0
  6
Continuous
 62
     7
100
AcDbLine
 10
-59.47946554264793
 20
-89.16258000672431
 30
0.0
 11
-59.47946554265303
 21
-89.63894763104595
 31
0.0
  0
LINE
  5
136
330
47
100
AcDbEntity
  8
0
  6
Continuous
 62
     7
100
AcDbLine
 10
-58.75455626703713
 20
-89.3587845570617
 30
0.0
 11
-59.47946554264793
 21
-89.16258000672431
 31
0.0
  0
LINE
  5
137
330
47
100
AcDbEntity
  8
0
  6
Continuous
 62
     7
100
AcDbLine
 10
-55.51554587623213
 20
-88.96590068673407
 30
0.0
 11
-55.51554587623343
 21
-89.65872100977295
 31
0.0
  0
LINE
  5
138
330
47
100
AcDbEntity
  8
0
  6
Continuous
 62
     7
100
AcDbLine
 10
-52.06440910665812
 20
-89.64324745066358
 30
0.0
 11
-50.88541885721392
 21
-90.29950210483179
 31
0.0
  0
LINE
  5
139
330
47
100
AcDbEntity
  8
0
  6
Continuous
 62
     7
100
AcDbLine
 10
-52.36440910665813
 20
-89.90305507179752
 30
0.0
 11
-55.51554587623213
 21
-88.96590068673407
 31
0.0
  0
LINE
  5
13A
330
47
100
AcDbEntity
  8
0
  6
Continuous
 62
     7
100
AcDbLine
 10
-55.21554587623213
 20
-88.70609306560098
 30
0.0
 11
-52.06440910665812
 21
-89.64324745066358
 31
0.0
  0
LINE
  5
13B
330
47
100
AcDbEntity
  8
0
  6
Continuous
 62
     7
100
AcDbLine
 10
-55.51554587623213
 20
-88.96590068673407
 30
0.0
 11
-55.21554587623213
 21
-88.70609306560098
 31
0.0
  0
LINE
  5
13C
330
47
100
AcDbEntity
  8
0
  6
Continuous
 62
     7
100
AcDbLine
 10
-52.54473327152913
 20
-84.64665285773397
 30
0.0
 11
-58.18635848087983
 21
-89.53244360758957
 31
0.0
  0
LINE
  5
13D
330
47
100
AcDbEntity
  8
0
  6
Continuous
 62
     7
100
AcDbLine
 10
-58.75455626703713
 20
-89.3587845570617
 30
0.0
 11
-53.07955625684343
 21
-84.44409038183028
 31
0.0
  0
LINE
  5
13E
330
47
100
AcDbEntity
  8
0
  6
Continuous
 62
     7
100
AcDbLine
 10
-59.47946554264793
 20
-89.16258000672431
 30
0.0
 11
-53.84970242092112
 21
-84.28706212609285
 31
0.0
  0
LINE
  5
13F
330
47
100
AcDbEntity
  8
0
  6
Continuous
 62
     7
100
AcDbLine
 10
-58.61973327155192
 20
-94.76150241016308
 30
0.0
 11
-58.61973327152913
 21
-89.90775718566726
 31
0.0
  0
LINE
  5
140
330
47
100
AcDbEntity
  8
0
  6
Continuous
 62
     7
100
AcDbLine
 10
-65.22955626706162
 20
-94.96629904654915
 30
0.0
 11
-64.69473327152913
 21
-95.16886151360058
 31
0.0
  0
LINE
  5
141
330
47
100
AcDbEntity
  8
0
  6
Continuous
 62
     7
100
AcDbLine
 10
-62.85268383031563
 20
-101.5324841113508
 30
0.0
 11
-62.85268383031463
 21
-101.0128688690795
 31
0.0
  0
LINE
  5
142
330
47
100
AcDbEntity
  8
0
  6
Continuous
 62
     7
100
AcDbLine
 10
-62.85268383031463
 20
-101.0128688690795
 30
0.0
 11
-63.03541885721462
 21
-101.1711220445353
 31
0.0
  0
LINE
  5
143
330
47
100
AcDbEntity
  8
0
  6
Continuous
 62
     7
100
AcDbLine
 10
-63.33541885721392
 20
-101.0815183818323
 30
0.0
 11
-63.33541885721462
 21
-101.4309296656692
 31
0.0
  0
LINE
  5
144
330
47
100
AcDbEntity
  8
0
  6
Continuous
 62
     7
100
AcDbLine
 10
-63.03541885721393
 20
-100.8217107606984
 30
0.0
 11
-63.33541885721392
 21
-101.0815183818323
 31
0.0
  0
LINE
  5
145
330
47
100
AcDbEntity
  8
0
  6
Continuous
 62
     7
100
AcDbLine
 10
-62.85268383031463
 20
-101.0128688690795
 30
0.0
 11
-63.03541885721403
 21
-100.8546156936237
 31
0.0
  0
LINE
  5
146
330
47
100
AcDbEntity
  8
0
  6
Continuous
 62
     7
100
AcDbLine
 10
-63.35111338891782
 20
-100.5812162093329
 30
0.0
 11
-63.59823603538483
 21
-100.5084330276598
 31
0.0
  0
LINE
  5
147
330
47
100
AcDbEntity
  8
0
  6
Continuous
 62
     7
100
AcDbLine
 10
-63.33541885721392
 20
-101.0815183818323
 30
0.0
 11
-64.51440910665812
 21
-100.4252637276641
 31
0.0
  0
LINE
  5
148
330
47
100
AcDbEntity
  8
0
  6
Continuous
 62
     7
100
AcDbLine
 10
-61.59054587623213
 20
-94.22700501466738
 30
0.0
 11
-61.29054587623213
 21
-93.96719739353428
 31
0.0
  0
LINE
  5
149
330
47
100
AcDbEntity
  8
0
  6
Continuous
 62
     7
100
AcDbLine
 10
-61.59054587623213
 20
-94.22700501466738
 30
0.0
 11
-61.59054587623342
 21
-94.91982533770626
 31
0.0
  0
LINE
  5
14A
330
47
100
AcDbEntity
  8
0
  6
Continuous
 62
     7
100
AcDbLine
 10
-62.85268383031563
 20
-101.5324841113508
 30
0.0
 11
-63.03541885721563
 21
-101.6907372868066
 31
0.0
  0
LINE
  5
14B
330
47
100
AcDbEntity
  8
0
  6
Continuous
 62
     7
100
AcDbLine
 10
-63.51815388411463
 20
-101.589182841125
 30
0.0
 11
-63.33541885721462
 21
-101.4309296656692
 31
0.0
  0
LINE
  5
14C
330
47
100
AcDbEntity
  8
0
  6
Continuous
 62
     7
100
AcDbLine
 10
-64.51501300132082
 20
-101.5891828411236
 30
0.0
 11
-63.51815388411463
 21
-101.589182841125
 31
0.0
  0
LINE
  5
14D
330
47
100
AcDbEntity
  8
0
  6
Continuous
 62
     7
100
AcDbLine
 10
-64.51501300132182
 20
-102.1087980833948
 30
0.0
 11
-64.51501300132082
 21
-101.5891828411236
 31
0.0
  0
LINE
  5
14E
330
47
100
AcDbEntity
  8
0
  6
Continuous
 62
     7
100
AcDbLine
 10
-63.51815388411562
 20
-102.1087980833963
 30
0.0
 11
-64.51501300132182
 21
-102.1087980833948
 31
0.0
  0
LINE
  5
14F
330
47
100
AcDbEntity
  8
0
  6
Continuous
 62
     7
100
AcDbLine
 10
-63.03541885721633
 20
-102.040148570641
 30
0.0
 11
-63.03541885721563
 21
-101.6907372868066
 31
0.0
  0
LINE
  5
150
330
47
100
AcDbEntity
  8
0
  6
Continuous
 62
     7
100
AcDbLine
 10
-63.03541885721393
 20
-100.8217107606984
 30
0.0
 11
-63.03541885721462
 21
-101.1711220445353
 31
0.0
  0
LINE
  5
151
330
47
100
AcDbEntity
  8
0
  6
Continuous
 62
     7
100
AcDbLine
 10
-63.14176927224942
 20
-100.7625135325003
 30
0.0
 11
-63.35111338891782
 21
-100.5812162093329
 31
0.0
  0
LINE
  5
152
330
47
100
AcDbEntity
  8
0
  6
Continuous
 62
     7
100
AcDbLine
 10
-64.69473327157353
 20
-104.6066706255209
 30
0.0
 11
-64.26135848092642
 21
-104.6950331927468
 31
0.0
  0
LINE
  5
153
330
47
100
AcDbEntity
  8
0
  6
Continuous
 62
     7
100
AcDbLine
 10
-64.26135848091512
 20
-102.280765220687
 30
0.0
 11
-64.26135848092642
 21
-104.6950331927468
 31
0.0
  0
LINE
  5
154
330
47
100
AcDbEntity
  8
0
  6
Continuous
 62
     7
100
AcDbLine
 10
-64.26135848087982
 20
-94.79354793552287
 30
0.0
 11
-64.26135848090503
 21
-100.1514932686184
 31
0.0
  0
LINE
  5
155
330
47
100
AcDbEntity
  8
0
  6
Continuous
 62
     7
100
AcDbLine
 10
-64.32409112603132
 20
-97.77568981683773
 30
0.0
 11
-64.32409112599002
 21
-100.1328364543551
 31
0.0
  0
LINE
  5
156
330
47
100
AcDbEntity
  8
0
  6
Continuous
 62
     7
100
AcDbLine
 10
-64.51440910665812
 20
-100.4252637276641
 30
0.0
 11
-64.21440910665812
 21
-100.1654561065302
 31
0.0
  0
LINE
  5
157
330
47
100
AcDbEntity
  8
0
  6
Continuous
 62
     7
100
AcDbLine
 10
-64.69473327157573
 20
-105.0703467708245
 30
0.0
 11
-64.69473327156233
 21
-102.2250390706288
 31
0.0
  0
LINE
  5
158
330
47
100
AcDbEntity
  8
0
  6
Continuous
 62
     7
100
AcDbLine
 10
-64.69473327155202
 20
-100.0226067380964
 30
0.0
 11
-64.69473327152913
 21
-95.16886151360058
 31
0.0
  0
LINE
  5
159
330
47
100
AcDbEntity
  8
0
  6
Continuous
 62
     7
100
AcDbLine
 10
-63.51815388411463
 20
-101.589182841125
 30
0.0
 11
-63.51815388411562
 21
-102.1087980833963
 31
0.0
  0
LINE
  5
15A
330
47
100
AcDbEntity
  8
0
  6
Continuous
 62
     7
100
AcDbLine
 10
-63.33541885721633
 20
-102.2999561917749
 30
0.0
 11
-63.33541885721563
 21
-101.9505449079405
 31
0.0
  0
LINE
  5
15B
330
47
100
AcDbEntity
  8
0
  6
Continuous
 62
     7
100
AcDbLine
 10
-63.33541885721633
 20
-102.2999561917749
 30
0.0
 11
-63.03541885721633
 21
-102.040148570641
 31
0.0
  0
LINE
  5
15C
330
47
100
AcDbEntity
  8
0
  6
Continuous
 62
     7
100
AcDbLine
 10
-63.51815388411562
 20
-102.1087980833963
 30
0.0
 11
-63.33541885721563
 21
-101.9505449079405
 31
0.0
  0
LINE
  5
15D
330
47
100
AcDbEntity
  8
0
  6
Continuous
 62
     7
100
AcDbLine
 10
-64.51440910667102
 20
-102.2755205080531
 30
0.0
 11
-63.33541885721633
 21
-102.2999561917749
 31
0.0
  0
LINE
  5
15E
330
47
100
AcDbEntity
  8
0
  6
Continuous
 62
     7
100
AcDbLine
 10
-64.21440910665812
 20
-100.1654561065302
 30
0.0
 11
-63.03541885721393
 21
-100.8217107606984
 31
0.0
  0
LINE
  5
15F
330
47
100
AcDbEntity
  8
0
  6
Continuous
 62
     7
100
AcDbLine
 10
-58.61973327152913
 20
-89.90775718566726
 30
0.0
 11
-64.26135848087982
 21
-94.79354793552287
 31
0.0
  0
LINE
  5
160
330
47
100
AcDbEntity
  8
0
  6
Continuous
 62
     7
100
AcDbLine
 10
-65.55446554274472
 20
-94.42368433463473
 30
0.0
 11
-59.92470242101803
 21
-89.54816645400327
 31
0.0
  0
LINE
  5
161
330
47
100
AcDbEntity
  8
0
  6
Continuous
 62
     7
100
AcDbLine
 10
-64.26135848092642
 20
-104.6950331927468
 30
0.0
 11
-58.61973327157573
 21
-99.80924244289116
 31
0.0
  0
LINE
  5
162
330
47
100
AcDbEntity
  8
0
  6
Continuous
 62
     7
100
AcDbLine
 10
-64.82955624566972
 20
-94.61988886751273
 30
0.0
 11
-59.15455592190013
 21
-89.705194824108
 31
0.0
  0
LINE
  5
163
330
47
100
AcDbEntity
  8
0
  6
Continuous
 62
     7
100
AcDbLine
 10
-52.36501300132183
 20
-91.58658942752825
 30
0.0
 11
-52.36501300132082
 21
-91.06697418525695
 31
0.0
  0
LINE
  5
164
330
47
100
AcDbEntity
  8
0
  6
Continuous
 62
     7
100
AcDbLine
 10
-53.07955625684343
 20
-84.44409038183028
 30
0.0
 11
-52.54473327152913
 21
-84.64665285773397
 31
0.0
  0
LINE
  5
165
330
47
100
AcDbEntity
  8
0
  6
Continuous
 62
     7
100
AcDbLine
 10
-52.54473327155192
 20
-89.50039808222978
 30
0.0
 11
-52.54473327152913
 21
-84.64665285773397
 31
0.0
  0
LINE
  5
166
330
47
100
AcDbEntity
  8
0
  6
Continuous
 62
     7
100
AcDbLine
 10
-52.54473327157572
 20
-94.54813811495787
 30
0.0
 11
-52.54473327156232
 21
-91.7028304147622
 31
0.0
  0
LINE
  5
167
330
47
100
AcDbEntity
  8
0
  6
Continuous
 62
     7
100
AcDbLine
 10
-53.84970242092112
 20
-84.28706212609285
 30
0.0
 11
-53.07955625684343
 21
-84.44409038183028
 31
0.0
  0
LINE
  5
168
330
47
100
AcDbEntity
  8
0
  6
Continuous
 62
     7
100
AcDbLine
 10
-50.88541885721632
 20
-91.51793991477437
 30
0.0
 11
-50.88541885721563
 21
-91.16852863093996
 31
0.0
  0
LINE
  5
169
330
47
100
AcDbEntity
  8
0
  6
Continuous
 62
     7
100
AcDbLine
 10
-51.18541885721632
 20
-91.7777475359083
 30
0.0
 11
-50.88541885721632
 21
-91.51793991477437
 31
0.0
  0
LINE
  5
16A
330
47
100
AcDbEntity
  8
0
  6
Continuous
 62
     7
100
AcDbLine
 10
-51.18541885721393
 20
-90.55930972596575
 30
0.0
 11
-51.18541885721463
 21
-90.90872100980262
 31
0.0
  0
LINE
  5
16B
330
47
100
AcDbEntity
  8
0
  6
Continuous
 62
     7
100
AcDbLine
 10
-51.36815388411563
 20
-91.5865894275297
 30
0.0
 11
-52.36501300132183
 21
-91.58658942752825
 31
0.0
  0
LINE
  5
16C
330
47
100
AcDbEntity
  8
0
  6
Continuous
 62
     7
100
AcDbLine
 10
-51.36815388411563
 20
-91.5865894275297
 30
0.0
 11
-51.18541885721562
 21
-91.4283362520739
 31
0.0
  0
LINE
  5
16D
330
47
100
AcDbEntity
  8
0
  6
Continuous
 62
     7
100
AcDbLine
 10
-51.36815388411462
 20
-91.0669741852584
 30
0.0
 11
-51.36815388411563
 21
-91.5865894275297
 31
0.0
  0
LINE
  5
16E
330
47
100
AcDbEntity
  8
0
  6
Continuous
 62
     7
100
AcDbLine
 10
-51.20111338891782
 20
-90.05900755346634
 30
0.0
 11
-51.44823603538482
 21
-89.98622437179326
 31
0.0
  0
LINE
  5
16F
330
47
100
AcDbEntity
  8
0
  6
Continuous
 62
     7
100
AcDbLine
 10
-52.36501300132082
 20
-91.06697418525695
 30
0.0
 11
-51.36815388411462
 21
-91.0669741852584
 31
0.0
  0
LINE
  5
170
330
47
100
AcDbEntity
  8
0
  6
Continuous
 62
     7
100
AcDbLine
 10
-55.51554587623542
 20
-90.69534655882099
 30
0.0
 11
-55.51554587623582
 21
-90.87115657508305
 31
0.0
  0
LINE
  5
171
330
47
100
AcDbEntity
  8
0
  6
Continuous
 62
     7
100
AcDbLine
 10
-55.51554587623343
 20
-89.65872100977295
 30
0.0
 11
-55.96554587621922
 21
-90.04843244146156
 31
0.0
  0
LINE
  5
172
330
47
100
AcDbEntity
  8
0
  6
Continuous
 62
     7
100
AcDbLine
 10
-55.96554587622022
 20
-90.56804768373286
 30
0.0
 11
-55.96554587621922
 21
-90.04843244146156
 31
0.0
  0
LINE
  5
173
330
47
100
AcDbEntity
  8
0
  6
Continuous
 62
     7
100
AcDbLine
 10
-58.18635848087983
 20
-89.53244360758957
 30
0.0
 11
-58.75455626703713
 21
-89.3587845570617
 31
0.0
  0
LINE
  5
174
330
47
100
AcDbEntity
  8
0
  6
Continuous
 62
     7
100
AcDbLine
 10
-55.96554587621922
 20
-90.04843244146156
 30
0.0
 11
-52.36501300132082
 21
-91.06697418525695
 31
0.0
  0
LINE
  5
175
330
47
100
AcDbEntity
  8
0
  6
Continuous
 62
     7
100
AcDbLine
 10
-52.36501300132183
 20
-91.58658942752825
 30
0.0
 11
-55.96554587622022
 21
-90.56804768373286
 31
0.0
  0
LINE
  5
176
330
47
100
AcDbEntity
  8
0
  6
Continuous
 62
     7
100
AcDbLine
 10
-51.18541885721463
 20
-90.90872100980262
 30
0.0
 11
-55.51554587623343
 21
-89.65872100977295
 31
0.0
  0
LINE
  5
177
330
47
100
AcDbEntity
  8
0
  6
Continuous
 62
     7
100
AcDbLine
 10
-55.51554587623582
 20
-90.87115657508305
 30
0.0
 11
-52.36440910667102
 21
-91.75331185218648
 31
0.0
  0
LINE
  5
178
330
47
100
AcDbEntity
  8
0
  6
Continuous
 62
     7
100
AcDbLine
 10
-52.36440910665813
 20
-89.90305507179752
 30
0.0
 11
-52.06440910665812
 21
-89.64324745066358
 31
0.0
  0
LINE
  5
179
330
47
100
AcDbEntity
  8
0
  6
Continuous
 62
     7
100
AcDbLine
 10
-51.18541885721393
 20
-90.55930972596575
 30
0.0
 11
-52.36440910665813
 21
-89.90305507179752
 31
0.0
  0
LINE
  5
17A
330
47
100
AcDbEntity
  8
0
  6
Continuous
 62
     7
100
AcDbLine
 10
-58.18635848091513
 20
-97.01966089275369
 30
0.0
 11
-58.18635848092643
 21
-99.43392886481345
 31
0.0
  0
LINE
  5
17B
330
47
100
AcDbEntity
  8
0
  6
Continuous
 62
     7
100
AcDbLine
 10
-58.18635848087983
 20
-89.53244360758957
 30
0.0
 11
-58.18635848090503
 21
-94.89038894068509
 31
0.0
  0
LINE
  5
17C
330
47
100
AcDbEntity
  8
0
  6
Continuous
 62
     7
100
AcDbLine
 10
-58.24909112603413
 20
-92.51458548890857
 30
0.0
 11
-58.24909112599282
 21
-94.87173212642102
 31
0.0
  0
LINE
  5
17D
330
47
100
AcDbEntity
  8
0
  6
Continuous
 62
     7
100
AcDbLine
 10
-58.75455591813092
 20
-89.85669354110104
 30
0.0
 11
-58.75455626703713
 21
-89.3587845570617
 31
0.0
  0
LINE
  5
17E
330
47
100
AcDbEntity
  8
0
  6
Continuous
 62
     7
100
AcDbLine
 10
-58.24909112603413
 20
-92.51458548890857
 30
0.0
 11
-58.61973327154102
 21
-92.43901373880212
 31
0.0
  0
LINE
  5
17F
330
47
100
AcDbEntity
  8
0
  6
Continuous
 62
     7
100
AcDbLine
 10
-58.24909112603413
 20
-92.51458548890857
 30
0.0
 11
-58.61973327154273
 21
-92.79921983049134
 31
0.0
  0
LINE
  5
180
330
47
100
AcDbEntity
  8
0
  6
Continuous
 62
     7
100
AcDbLine
 10
-61.29054587623213
 20
-93.96719739353428
 30
0.0
 11
-58.13940910665812
 21
-94.90435177859688
 31
0.0
  0
LINE
  5
181
330
47
100
AcDbEntity
  8
0
  6
Continuous
 62
     7
100
AcDbLine
 10
-58.43940910665812
 20
-95.16415939973082
 30
0.0
 11
-61.59054587623213
 21
-94.22700501466738
 31
0.0
  0
LINE
  5
182
330
47
100
AcDbEntity
  8
0
  6
Continuous
 62
     7
100
AcDbLine
 10
-70.90455624566972
 20
-99.88099319554325
 30
0.0
 11
-65.22955626706162
 21
-94.96629904654915
 31
0.0
  0
ENDBLK
  5
49
330
47
100
AcDbEntity
  8
0
100
AcDbBlockEnd
  0
BLOCK
  5
4C
330
4A
100
AcDbEntity
  8
0
100
AcDbBlockBegin
  2
Allg1
 70
     0
 10
-66.00000054994342
 20
-102.999999609023
 30
0.0
  3
Allg1
  1

  0
INSERT
  5
4B
330
4A
100
AcDbEntity
  8
0
100
AcDbBlockReference
  2
WS_PT_16-select__1
 10
-83.7794655427913
 20
-120.4783461765467
 30
0.0
  0
MTEXT
  5
184
330
4A
100
AcDbEntity
  8
1
 62
     6
100
AcDbMText
 10
-66.00000054994302
 20
-124.2717318830335
 30
0.0
 40
2.5
 41
0.0
 71
     2
 72
     1
  1
 
  7
CONVERTER_11
 73
     1
 44
1.32052821128451
  0
ENDBLK
  5
4D
330
4A
100
AcDbEntity
  8
0
100
AcDbBlockEnd
  0
BLOCK
  5
4F
330
4E
100
AcDbEntity
  8
0
100
AcDbBlockBegin
  2
WS_PT_16-select__2
 70
     0
 10
-129.2000777807922
 20
-122.2000390474336
 30
0.0
  3
WS_PT_16-select__2
  1

  0
LINE
  5
185
330
4E
100
AcDbEntity
  8
0
  6
Continuous
 62
     7
100
AcDbLine
 10
-129.2000777807922
 20
-122.1548021691598
 30
0.0
 11
-129.2000777807922
 21
-110.8952759257063
 31
0.0
  0
LINE
  5
186
330
4E
100
AcDbEntity
  8
0
  6
Continuous
 62
     7
100
AcDbLine
 10
-129.2000777807922
 20
-98.74527592570632
 30
0.0
 11
-128.9312246529375
 21
-98.73118593034772
 31
0.0
  0
LINE
  5
187
330
4E
100
AcDbEntity
  8
0
  6
Continuous
 62
     7
100
AcDbLine
 10
-128.931224675458
 20
-110.0188921633896
 30
0.0
 11
-129.2000777807922
 21
-110.0048021691598
 31
0.0
  0
LINE
  5
188
330
4E
100
AcDbEntity
  8
0
  6
Continuous
 62
     7
100
AcDbLine
 10
-129.2000777807922
 20
-110.0048021691598
 30
0.0
 11
-129.2000777807922
 21
-98.74527592570632
 31
0.0
  0
LINE
  5
189
330
4E
100
AcDbEntity
  8
0
  6
Continuous
 62
     7
100
AcDbLine
 10
-129.2000777807922
 20
-86.59527592570632
 30
0.0
 11
-128.9312246529405
 21
-86.58118593034789
 31
0.0
  0
LINE
  5
18A
330
4E
100
AcDbEntity
  8
0
  6
Continuous
 62
     7
100
AcDbLine
 10
-128.931224675461
 20
-97.8688921633894
 30
0.0
 11
-129.2000777807922
 21
-97.8548021691598
 31
0.0
  0
LINE
  5
18B
330
4E
100
AcDbEntity
  8
0
  6
Continuous
 62
     7
100
AcDbLine
 10
-128.5000777807508
 20
-110.450039047475
 30
0.0
 11
-128.200077780677
 21
-110.4500390474712
 31
0.0
  0
LINE
  5
18C
330
4E
100
AcDbEntity
  8
0
  6
Continuous
 62
     7
100
AcDbLine
 10
-128.5000777807593
 20
-86.15003904747151
 30
0.0
 11
-128.2000777807834
 21
-86.15003904747215
 31
0.0
  0
LINE
  5
18D
330
4E
100
AcDbEntity
  8
0
  6
Continuous
 62
     7
100
AcDbLine
 10
-129.2000777807922
 20
-97.8548021691598
 30
0.0
 11
-129.2000777807922
 21
-86.59527592570632
 31
0.0
  0
LINE
  5
18E
330
4E
100
AcDbEntity
  8
0
  6
Continuous
 62
     7
100
AcDbLine
 10
-128.3369071131358
 20
-97.90003902699382
 30
0.0
 11
-128.931224675461
 21
-97.8688921633894
 31
0.0
  0
LINE
  5
18F
330
4E
100
AcDbEntity
  8
0
  6
Continuous
 62
     7
100
AcDbLine
 10
-128.5000777807508
 20
-110.450039047475
 30
0.0
 11
-128.931224675458
 21
-110.0188921633896
 31
0.0
  0
LINE
  5
190
330
4E
100
AcDbEntity
  8
0
  6
Continuous
 62
     7
100
AcDbLine
 10
-128.3369067231231
 20
-110.0500390474335
 30
0.0
 11
-128.931224675458
 21
-110.0188921633896
 31
0.0
  0
LINE
  5
191
330
4E
100
AcDbEntity
  8
0
  6
Continuous
 62
     7
100
AcDbLine
 10
-129.2000777807922
 20
-110.8952759257063
 30
0.0
 11
-128.9312246529346
 21
-110.8811859303476
 31
0.0
  0
LINE
  5
192
330
4E
100
AcDbEntity
  8
0
  6
Continuous
 62
     7
100
AcDbLine
 10
-128.336906723123
 20
-122.2000390474336
 30
0.0
 11
-129.2000777807922
 21
-122.1548021691598
 31
0.0
  0
LINE
  5
193
330
4E
100
AcDbEntity
  8
0
  6
Continuous
 62
     7
100
AcDbLine
 10
-128.3369067231231
 20
-110.0500390474335
 30
0.0
 11
-128.3369071142069
 21
-98.70003906787193
 31
0.0
  0
LINE
  5
194
330
4E
100
AcDbEntity
  8
0
  6
Continuous
 62
     7
100
AcDbLine
 10
-128.3369071142069
 20
-73.60003906787352
 30
0.0
 11
-128.3369071142069
 21
-62.25003904748611
 31
0.0
  0
LINE
  5
195
330
4E
100
AcDbEntity
  8
0
  6
Continuous
 62
     7
100
AcDbLine
 10
-128.3369071131358
 20
-85.75003902699383
 30
0.0
 11
-128.3369067273511
 21
-74.4000390476535
 31
0.0
  0
LINE
  5
196
330
4E
100
AcDbEntity
  8
0
  6
Continuous
 62
     7
100
AcDbLine
 10
-128.336906723123
 20
-122.2000390474336
 30
0.0
 11
-128.3369067356725
 21
-110.8500390480896
 31
0.0
  0
LINE
  5
197
330
4E
100
AcDbEntity
  8
0
  6
Continuous
 62
     7
100
AcDbLine
 10
-122.7000777806816
 20
-68.22503904748899
 30
0.0
 11
-124.061458456459
 21
-68.22503904748694
 31
0.0
  0
LINE
  5
198
330
4E
100
AcDbEntity
  8
0
  6
Continuous
 62
     7
100
AcDbLine
 10
-122.7000777806816
 20
-67.625039047489
 30
0.0
 11
-122.7000777806816
 21
-68.22503904748899
 31
0.0
  0
LINE
  5
199
330
4E
100
AcDbEntity
  8
0
  6
Continuous
 62
     7
100
AcDbLine
 10
-124.061458456459
 20
-68.22503904748694
 30
0.0
 11
-124.061458456459
 21
-67.62503904748694
 31
0.0
  0
LINE
  5
19A
330
4E
100
AcDbEntity
  8
0
  6
Continuous
 62
     7
100
AcDbLine
 10
-124.061458456459
 20
-68.22503904748694
 30
0.0
 11
-127.7000777807928
 21
-68.22503904748686
 31
0.0
  0
LINE
  5
19B
330
4E
100
AcDbEntity
  8
0
  6
Continuous
 62
     7
100
AcDbLine
 10
-127.7000777807928
 20
-67.62503904748685
 30
0.0
 11
-124.061458456459
 21
-67.62503904748694
 31
0.0
  0
LINE
  5
19C
330
4E
100
AcDbEntity
  8
0
  6
Continuous
 62
     7
100
AcDbLine
 10
-123.5633831001764
 20
-66.76113943508587
 30
0.0
 11
-127.7000777807932
 21
-66.72503904751837
 31
0.0
  0
LINE
  5
19D
330
4E
100
AcDbEntity
  8
0
  6
Continuous
 62
     7
100
AcDbLine
 10
-122.7000777806816
 20
-67.25956899368903
 30
0.0
 11
-122.7000777806816
 21
-67.625039047489
 31
0.0
  0
LINE
  5
19E
330
4E
100
AcDbEntity
  8
0
  6
Continuous
 62
     7
100
AcDbLine
 10
-122.7000777806816
 20
-68.59050910128899
 30
0.0
 11
-122.7000777806816
 21
-68.22503904748899
 31
0.0
  0
LINE
  5
19F
330
4E
100
AcDbEntity
  8
0
  6
Continuous
 62
     7
100
AcDbLine
 10
-122.7000777806816
 20
-67.25956899368903
 30
0.0
 11
-123.5633831001764
 21
-66.76113943508587
 31
0.0
  0
LINE
  5
1A0
330
4E
100
AcDbEntity
  8
0
  6
Continuous
 62
     7
100
AcDbLine
 10
-124.061458456459
 20
-67.62503904748694
 30
0.0
 11
-122.7000777806816
 21
-67.625039047489
 31
0.0
  0
LINE
  5
1A1
330
4E
100
AcDbEntity
  8
0
  6
Continuous
 62
     7
100
AcDbLine
 10
-127.7000777807932
 20
-103.1750390475174
 30
0.0
 11
-127.7000777807928
 21
-104.0750390474869
 31
0.0
  0
LINE
  5
1A2
330
4E
100
AcDbEntity
  8
0
  6
Continuous
 62
     7
100
AcDbLine
 10
-127.7000777807928
 20
-91.92503904748685
 30
0.0
 11
-127.7000777807928
 21
-92.52503904748686
 31
0.0
  0
LINE
  5
1A3
330
4E
100
AcDbEntity
  8
0
  6
Continuous
 62
     7
100
AcDbLine
 10
-127.7000777806815
 20
-91.02503904751836
 30
0.0
 11
-127.7000777807928
 21
-91.92503904748685
 31
0.0
  0
LINE
  5
1A4
330
4E
100
AcDbEntity
  8
0
  6
Continuous
 62
     7
100
AcDbLine
 10
-127.7000777807932
 20
-117.7250390474606
 30
0.0
 11
-127.700077780792
 21
-122.1666642567837
 31
0.0
  0
LINE
  5
1A5
330
4E
100
AcDbEntity
  8
0
  6
Continuous
 62
     7
100
AcDbLine
 10
-127.7000777807928
 20
-116.8250390474869
 30
0.0
 11
-127.7000777807932
 21
-117.7250390474606
 31
0.0
  0
LINE
  5
1A6
330
4E
100
AcDbEntity
  8
0
  6
Continuous
 62
     7
100
AcDbLine
 10
-127.700077780792
 20
-110.8834138380823
 30
0.0
 11
-127.7000777806815
 21
-115.3250390475184
 31
0.0
  0
LINE
  5
1A7
330
4E
100
AcDbEntity
  8
0
  6
Continuous
 62
     7
100
AcDbLine
 10
-127.7000777807932
 20
-78.87503904751738
 30
0.0
 11
-127.7000777807928
 21
-79.77503904748686
 31
0.0
  0
LINE
  5
1A8
330
4E
100
AcDbEntity
  8
0
  6
Continuous
 62
     7
100
AcDbLine
 10
-127.7000777807928
 20
-79.77503904748686
 30
0.0
 11
-127.7000777807928
 21
-80.37503904748685
 31
0.0
  0
LINE
  5
1A9
330
4E
100
AcDbEntity
  8
0
  6
Continuous
 62
     7
100
AcDbLine
 10
-127.7000777807928
 20
-80.37503904748685
 30
0.0
 11
-127.7000777807932
 21
-81.27503904746057
 31
0.0
  0
LINE
  5
1AA
330
4E
100
AcDbEntity
  8
0
  6
Continuous
 62
     7
100
AcDbLine
 10
-127.7000777807928
 20
-67.62503904748685
 30
0.0
 11
-127.7000777807928
 21
-68.22503904748686
 31
0.0
  0
LINE
  5
1AB
330
4E
100
AcDbEntity
  8
0
  6
Continuous
 62
     7
100
AcDbLine
 10
-127.7000777807932
 20
-66.72503904751837
 30
0.0
 11
-127.7000777807928
 21
-67.62503904748685
 31
0.0
  0
LINE
  5
1AC
330
4E
100
AcDbEntity
  8
0
  6
Continuous
 62
     7
100
AcDbLine
 10
-127.7000777807928
 20
-68.22503904748686
 30
0.0
 11
-127.7000777807932
 21
-69.12503904746058
 31
0.0
  0
LINE
  5
1AD
330
4E
100
AcDbEntity
  8
0
  6
Continuous
 62
     7
100
AcDbLine
 10
-127.7000777807932
 20
-69.12503904746058
 30
0.0
 11
-127.700077780792
 21
-73.56666425678372
 31
0.0
  0
LINE
  5
1AE
330
4E
100
AcDbEntity
  8
0
  6
Continuous
 62
     7
100
AcDbLine
 10
-127.700077780792
 20
-62.28341383808227
 30
0.0
 11
-127.7000777807932
 21
-66.72503904751837
 31
0.0
  0
LINE
  5
1AF
330
4E
100
AcDbEntity
  8
0
  6
Continuous
 62
     7
100
AcDbLine
 10
-127.7000777807932
 20
-81.27503904746057
 30
0.0
 11
-127.700077780792
 21
-85.71666425678372
 31
0.0
  0
LINE
  5
1B0
330
4E
100
AcDbEntity
  8
0
  6
Continuous
 62
     7
100
AcDbLine
 10
-127.700077780792
 20
-74.43341383808227
 30
0.0
 11
-127.7000777807932
 21
-78.87503904751738
 31
0.0
  0
LINE
  5
1B1
330
4E
100
AcDbEntity
  8
0
  6
Continuous
 62
     7
100
AcDbLine
 10
-127.700077780792
 20
-98.73341383808228
 30
0.0
 11
-127.7000777807932
 21
-103.1750390475174
 31
0.0
  0
LINE
  5
1B2
330
4E
100
AcDbEntity
  8
0
  6
Continuous
 62
     7
100
AcDbLine
 10
-127.7703878071817
 20
-98.72972904576382
 30
0.0
 11
-127.700077780792
 21
-98.73341383808228
 31
0.0
  0
LINE
  5
1B3
330
4E
100
AcDbEntity
  8
0
  6
Continuous
 62
     7
100
AcDbLine
 10
-122.7000777806816
 20
-92.52503904748899
 30
0.0
 11
-124.0614584564591
 21
-92.52503904748694
 31
0.0
  0
LINE
  5
1B4
330
4E
100
AcDbEntity
  8
0
  6
Continuous
 62
     7
100
AcDbLine
 10
-124.061458456459
 20
-91.92503904748693
 30
0.0
 11
-122.7000777806816
 21
-91.925039047489
 31
0.0
  0
LINE
  5
1B5
330
4E
100
AcDbEntity
  8
0
  6
Continuous
 62
     7
100
AcDbLine
 10
-122.7000777806816
 20
-91.925039047489
 30
0.0
 11
-122.7000777806816
 21
-92.52503904748899
 31
0.0
  0
LINE
  5
1B6
330
4E
100
AcDbEntity
  8
0
  6
Continuous
 62
     7
100
AcDbLine
 10
-122.7000777806816
 20
-92.890509101289
 30
0.0
 11
-122.7000777806816
 21
-92.52503904748899
 31
0.0
  0
LINE
  5
1B7
330
4E
100
AcDbEntity
  8
0
  6
Continuous
 62
     7
100
AcDbLine
 10
-124.0614584564591
 20
-92.52503904748694
 30
0.0
 11
-127.7000777807928
 21
-92.52503904748686
 31
0.0
  0
LINE
  5
1B8
330
4E
100
AcDbEntity
  8
0
  6
Continuous
 62
     7
100
AcDbLine
 10
-127.7000777807932
 20
-93.4250390474596
 30
0.0
 11
-123.5633831001763
 21
-93.3889386598921
 31
0.0
  0
LINE
  5
1B9
330
4E
100
AcDbEntity
  8
0
  6
Continuous
 62
     7
100
AcDbLine
 10
-123.5633831001764
 20
-91.06113943508586
 30
0.0
 11
-127.7000777806815
 21
-91.02503904751836
 31
0.0
  0
LINE
  5
1BA
330
4E
100
AcDbEntity
  8
0
  6
Continuous
 62
     7
100
AcDbLine
 10
-127.7703878071847
 20
-86.57972904576366
 30
0.0
 11
-127.700077780792
 21
-86.58341383808228
 31
0.0
  0
LINE
  5
1BB
330
4E
100
AcDbEntity
  8
0
  6
Continuous
 62
     7
100
AcDbLine
 10
-127.700077780792
 20
-86.58341383808228
 30
0.0
 11
-127.7000777806815
 21
-91.02503904751836
 31
0.0
  0
LINE
  5
1BC
330
4E
100
AcDbEntity
  8
0
  6
Continuous
 62
     7
100
AcDbLine
 10
-127.7000777807928
 20
-92.52503904748686
 30
0.0
 11
-127.7000777807932
 21
-93.4250390474596
 31
0.0
  0
LINE
  5
1BD
330
4E
100
AcDbEntity
  8
0
  6
Continuous
 62
     7
100
AcDbLine
 10
-127.7000777807932
 20
-93.4250390474596
 30
0.0
 11
-127.700077780792
 21
-97.86666425678372
 31
0.0
  0
LINE
  5
1BE
330
4E
100
AcDbEntity
  8
0
  6
Continuous
 62
     7
100
AcDbLine
 10
-127.700077780792
 20
-97.86666425678372
 30
0.0
 11
-127.7703877847318
 21
-97.87034904797723
 31
0.0
  0
LINE
  5
1BF
330
4E
100
AcDbEntity
  8
0
  6
Continuous
 62
     7
100
AcDbLine
 10
-127.7703877847318
 20
-97.87034904797723
 30
0.0
 11
-128.3369071131358
 21
-97.90003902699382
 31
0.0
  0
LINE
  5
1C0
330
4E
100
AcDbEntity
  8
0
  6
Continuous
 62
     7
100
AcDbLine
 10
-122.7000777806816
 20
-91.55956899368904
 30
0.0
 11
-122.7000777806816
 21
-91.925039047489
 31
0.0
  0
LINE
  5
1C1
330
4E
100
AcDbEntity
  8
0
  6
Continuous
 62
     7
100
AcDbLine
 10
-124.0614584564591
 20
-92.52503904748694
 30
0.0
 11
-124.061458456459
 21
-91.92503904748693
 31
0.0
  0
LINE
  5
1C2
330
4E
100
AcDbEntity
  8
0
  6
Continuous
 62
     7
100
AcDbLine
 10
-127.7703877847348
 20
-85.7203490479774
 30
0.0
 11
-128.2000777807834
 21
-86.15003904747215
 31
0.0
  0
LINE
  5
1C3
330
4E
100
AcDbEntity
  8
0
  6
Continuous
 62
     7
100
AcDbLine
 10
-128.3369071142039
 20
-86.5500390679276
 30
0.0
 11
-127.7703878071847
 21
-86.57972904576366
 31
0.0
  0
LINE
  5
1C4
330
4E
100
AcDbEntity
  8
0
  6
Continuous
 62
     7
100
AcDbLine
 10
-128.9312246529405
 20
-86.58118593034789
 30
0.0
 11
-128.3369071142039
 21
-86.5500390679276
 31
0.0
  0
LINE
  5
1C5
330
4E
100
AcDbEntity
  8
0
  6
Continuous
 62
     7
100
AcDbLine
 10
-128.3369071131358
 20
-97.90003902699382
 30
0.0
 11
-128.3369071142039
 21
-86.5500390679276
 31
0.0
  0
LINE
  5
1C6
330
4E
100
AcDbEntity
  8
0
  6
Continuous
 62
     7
100
AcDbLine
 10
-128.2000777807834
 20
-86.15003904747215
 30
0.0
 11
-127.7703878071847
 21
-86.57972904576366
 31
0.0
  0
LINE
  5
1C7
330
4E
100
AcDbEntity
  8
0
  6
Continuous
 62
     7
100
AcDbLine
 10
-128.3369071142069
 20
-98.70003906787193
 30
0.0
 11
-127.7703878071817
 21
-98.72972904576382
 31
0.0
  0
LINE
  5
1C8
330
4E
100
AcDbEntity
  8
0
  6
Continuous
 62
     7
100
AcDbLine
 10
-128.9312246529375
 20
-98.73118593034772
 30
0.0
 11
-128.3369071142069
 21
-98.70003906787193
 31
0.0
  0
LINE
  5
1C9
330
4E
100
AcDbEntity
  8
0
  6
Continuous
 62
     7
100
AcDbLine
 10
-128.2000777807687
 20
-98.3000390474715
 30
0.0
 11
-127.7703878071817
 21
-98.72972904576382
 31
0.0
  0
LINE
  5
1CA
330
4E
100
AcDbEntity
  8
0
  6
Continuous
 62
     7
100
AcDbLine
 10
-128.5000777807564
 20
-98.3000390474779
 30
0.0
 11
-128.2000777807687
 21
-98.3000390474715
 31
0.0
  0
LINE
  5
1CB
330
4E
100
AcDbEntity
  8
0
  6
Continuous
 62
     7
100
AcDbLine
 10
-127.7703877847318
 20
-97.87034904797723
 30
0.0
 11
-128.2000777807687
 21
-98.3000390474715
 31
0.0
  0
LINE
  5
1CC
330
4E
100
AcDbEntity
  8
0
  6
Continuous
 62
     7
100
AcDbLine
 10
-128.5000777807564
 20
-98.3000390474779
 30
0.0
 11
-128.931224675461
 21
-97.8688921633894
 31
0.0
  0
LINE
  5
1CD
330
4E
100
AcDbEntity
  8
0
  6
Continuous
 62
     7
100
AcDbLine
 10
-128.9312246529375
 20
-98.73118593034772
 30
0.0
 11
-128.5000777807564
 21
-98.3000390474779
 31
0.0
  0
LINE
  5
1CE
330
4E
100
AcDbEntity
  8
0
  6
Continuous
 62
     7
100
AcDbLine
 10
-128.9312246529405
 20
-86.58118593034789
 30
0.0
 11
-128.5000777807593
 21
-86.15003904747151
 31
0.0
  0
LINE
  5
1CF
330
4E
100
AcDbEntity
  8
0
  6
Continuous
 62
     7
100
AcDbLine
 10
-128.5000777807593
 20
-86.15003904747151
 30
0.0
 11
-128.9312246754641
 21
-85.71889216338924
 31
0.0
  0
LINE
  5
1D0
330
4E
100
AcDbEntity
  8
0
  6
Continuous
 62
     7
100
AcDbLine
 10
-123.5633831001763
 20
-93.3889386598921
 30
0.0
 11
-122.7000777806816
 21
-92.890509101289
 31
0.0
  0
LINE
  5
1D1
330
4E
100
AcDbEntity
  8
0
  6
Continuous
 62
     7
100
AcDbLine
 10
-127.7000777807928
 20
-91.92503904748685
 30
0.0
 11
-124.061458456459
 21
-91.92503904748693
 31
0.0
  0
LINE
  5
1D2
330
4E
100
AcDbEntity
  8
0
  6
Continuous
 62
     7
100
AcDbLine
 10
-128.3369071142069
 20
-62.25003904748611
 30
0.0
 11
-127.700077780792
 21
-62.28341383808227
 31
0.0
  0
LINE
  5
1D3
330
4E
100
AcDbEntity
  8
0
  6
Continuous
 62
     7
100
AcDbLine
 10
-129.2000777806804
 20
-62.29527592570632
 30
0.0
 11
-128.3369071142069
 21
-62.25003904748611
 31
0.0
  0
LINE
  5
1D4
330
4E
100
AcDbEntity
  8
0
  6
Continuous
 62
     7
100
AcDbLine
 10
-129.2000777806804
 20
-73.5548021691598
 30
0.0
 11
-129.2000777806804
 21
-62.29527592570632
 31
0.0
  0
LINE
  5
1D5
330
4E
100
AcDbEntity
  8
0
  6
Continuous
 62
     7
100
AcDbLine
 10
-128.9312246754671
 20
-73.5688921633891
 30
0.0
 11
-129.2000777806804
 21
-73.5548021691598
 31
0.0
  0
LINE
  5
1D6
330
4E
100
AcDbEntity
  8
0
  6
Continuous
 62
     7
100
AcDbLine
 10
-122.7000777806816
 20
-116.225039047489
 30
0.0
 11
-122.7000777806816
 21
-116.825039047489
 31
0.0
  0
LINE
  5
1D7
330
4E
100
AcDbEntity
  8
0
  6
Continuous
 62
     7
100
AcDbLine
 10
-122.7000777806816
 20
-116.825039047489
 30
0.0
 11
-124.0614584564591
 21
-116.8250390474869
 31
0.0
  0
LINE
  5
1D8
330
4E
100
AcDbEntity
  8
0
  6
Continuous
 62
     7
100
AcDbLine
 10
-124.0614584564591
 20
-116.2250390474869
 30
0.0
 11
-122.7000777806816
 21
-116.225039047489
 31
0.0
  0
LINE
  5
1D9
330
4E
100
AcDbEntity
  8
0
  6
Continuous
 62
     7
100
AcDbLine
 10
-122.7000777806816
 20
-117.190509101289
 30
0.0
 11
-122.7000777806816
 21
-116.825039047489
 31
0.0
  0
LINE
  5
1DA
330
4E
100
AcDbEntity
  8
0
  6
Continuous
 62
     7
100
AcDbLine
 10
-123.5633831001763
 20
-117.6889386598921
 30
0.0
 11
-122.7000777806816
 21
-117.190509101289
 31
0.0
  0
LINE
  5
1DB
330
4E
100
AcDbEntity
  8
0
  6
Continuous
 62
     7
100
AcDbLine
 10
-127.7000777807932
 20
-117.7250390474606
 30
0.0
 11
-123.5633831001763
 21
-117.6889386598921
 31
0.0
  0
LINE
  5
1DC
330
4E
100
AcDbEntity
  8
0
  6
Continuous
 62
     7
100
AcDbLine
 10
-122.7000777806816
 20
-115.859568993689
 30
0.0
 11
-122.7000777806816
 21
-116.225039047489
 31
0.0
  0
LINE
  5
1DD
330
4E
100
AcDbEntity
  8
0
  6
Continuous
 62
     7
100
AcDbLine
 10
-127.7000777807928
 20
-116.2250390474869
 30
0.0
 11
-127.7000777807928
 21
-116.8250390474869
 31
0.0
  0
LINE
  5
1DE
330
4E
100
AcDbEntity
  8
0
  6
Continuous
 62
     7
100
AcDbLine
 10
-127.7000777806815
 20
-115.3250390475184
 30
0.0
 11
-127.7000777807928
 21
-116.2250390474869
 31
0.0
  0
LINE
  5
1DF
330
4E
100
AcDbEntity
  8
0
  6
Continuous
 62
     7
100
AcDbLine
 10
-124.0614584564591
 20
-116.8250390474869
 30
0.0
 11
-124.0614584564591
 21
-116.2250390474869
 31
0.0
  0
LINE
  5
1E0
330
4E
100
AcDbEntity
  8
0
  6
Continuous
 62
     7
100
AcDbLine
 10
-128.3369067356725
 20
-110.8500390480896
 30
0.0
 11
-127.7703878070731
 21
-110.8797290457695
 31
0.0
  0
LINE
  5
1E1
330
4E
100
AcDbEntity
  8
0
  6
Continuous
 62
     7
100
AcDbLine
 10
-127.7703878070731
 20
-110.8797290457695
 30
0.0
 11
-127.700077780792
 21
-110.8834138380823
 31
0.0
  0
LINE
  5
1E2
330
4E
100
AcDbEntity
  8
0
  6
Continuous
 62
     7
100
AcDbLine
 10
-128.200077780677
 20
-110.4500390474712
 30
0.0
 11
-127.7703878070731
 21
-110.8797290457695
 31
0.0
  0
LINE
  5
1E3
330
4E
100
AcDbEntity
  8
0
  6
Continuous
 62
     7
100
AcDbLine
 10
-127.700077780792
 20
-122.1666642567837
 30
0.0
 11
-128.336906723123
 21
-122.2000390474336
 31
0.0
  0
LINE
  5
1E4
330
4E
100
AcDbEntity
  8
0
  6
Continuous
 62
     7
100
AcDbLine
 10
-123.5633831001764
 20
-115.3611394350859
 30
0.0
 11
-127.7000777806815
 21
-115.3250390475184
 31
0.0
  0
LINE
  5
1E5
330
4E
100
AcDbEntity
  8
0
  6
Continuous
 62
     7
100
AcDbLine
 10
-122.7000777806816
 20
-115.859568993689
 30
0.0
 11
-123.5633831001764
 21
-115.3611394350859
 31
0.0
  0
LINE
  5
1E6
330
4E
100
AcDbEntity
  8
0
  6
Continuous
 62
     7
100
AcDbLine
 10
-127.7000777807928
 20
-116.2250390474869
 30
0.0
 11
-124.0614584564591
 21
-116.2250390474869
 31
0.0
  0
LINE
  5
1E7
330
4E
100
AcDbEntity
  8
0
  6
Continuous
 62
     7
100
AcDbLine
 10
-124.0614584564591
 20
-116.8250390474869
 30
0.0
 11
-127.7000777807928
 21
-116.8250390474869
 31
0.0
  0
LINE
  5
1E8
330
4E
100
AcDbEntity
  8
0
  6
Continuous
 62
     7
100
AcDbLine
 10
-122.7000777806814
 20
-79.77503904748791
 30
0.0
 11
-122.7000777806816
 21
-80.375039047489
 31
0.0
  0
LINE
  5
1E9
330
4E
100
AcDbEntity
  8
0
  6
Continuous
 62
     7
100
AcDbLine
 10
-122.7000777806816
 20
-79.40956899368904
 30
0.0
 11
-122.7000777806814
 21
-79.77503904748791
 31
0.0
  0
LINE
  5
1EA
330
4E
100
AcDbEntity
  8
0
  6
Continuous
 62
     7
100
AcDbLine
 10
-124.0614584564591
 20
-79.77503904748693
 30
0.0
 11
-122.7000777806814
 21
-79.77503904748791
 31
0.0
  0
LINE
  5
1EB
330
4E
100
AcDbEntity
  8
0
  6
Continuous
 62
     7
100
AcDbLine
 10
-122.7000777806816
 20
-80.375039047489
 30
0.0
 11
-124.061458456459
 21
-80.37503904748694
 31
0.0
  0
LINE
  5
1EC
330
4E
100
AcDbEntity
  8
0
  6
Continuous
 62
     7
100
AcDbLine
 10
-122.7000777806816
 20
-80.74050910128899
 30
0.0
 11
-122.7000777806816
 21
-80.375039047489
 31
0.0
  0
LINE
  5
1ED
330
4E
100
AcDbEntity
  8
0
  6
Continuous
 62
     7
100
AcDbLine
 10
-124.061458456459
 20
-80.37503904748694
 30
0.0
 11
-127.7000777807928
 21
-80.37503904748685
 31
0.0
  0
LINE
  5
1EE
330
4E
100
AcDbEntity
  8
0
  6
Continuous
 62
     7
100
AcDbLine
 10
-124.061458456459
 20
-80.37503904748694
 30
0.0
 11
-124.0614584564591
 21
-79.77503904748693
 31
0.0
  0
LINE
  5
1EF
330
4E
100
AcDbEntity
  8
0
  6
Continuous
 62
     7
100
AcDbLine
 10
-127.7000777807932
 20
-69.12503904746058
 30
0.0
 11
-123.5633831001763
 21
-69.08893865989211
 31
0.0
  0
LINE
  5
1F0
330
4E
100
AcDbEntity
  8
0
  6
Continuous
 62
     7
100
AcDbLine
 10
-123.5633831001763
 20
-69.08893865989211
 30
0.0
 11
-122.7000777806816
 21
-68.59050910128899
 31
0.0
  0
LINE
  5
1F1
330
4E
100
AcDbEntity
  8
0
  6
Continuous
 62
     7
100
AcDbLine
 10
-127.7000777807932
 20
-81.27503904746057
 30
0.0
 11
-123.5633831001763
 21
-81.2389386598921
 31
0.0
  0
LINE
  5
1F2
330
4E
100
AcDbEntity
  8
0
  6
Continuous
 62
     7
100
AcDbLine
 10
-123.5633831001763
 20
-81.2389386598921
 30
0.0
 11
-122.7000777806816
 21
-80.74050910128899
 31
0.0
  0
LINE
  5
1F3
330
4E
100
AcDbEntity
  8
0
  6
Continuous
 62
     7
100
AcDbLine
 10
-127.7000777807928
 20
-79.77503904748686
 30
0.0
 11
-124.0614584564591
 21
-79.77503904748693
 31
0.0
  0
LINE
  5
1F4
330
4E
100
AcDbEntity
  8
0
  6
Continuous
 62
     7
100
AcDbLine
 10
-123.5633831001764
 20
-78.91113943508586
 30
0.0
 11
-127.7000777807932
 21
-78.87503904751738
 31
0.0
  0
LINE
  5
1F5
330
4E
100
AcDbEntity
  8
0
  6
Continuous
 62
     7
100
AcDbLine
 10
-122.7000777806816
 20
-79.40956899368904
 30
0.0
 11
-123.5633831001764
 21
-78.91113943508586
 31
0.0
  0
LINE
  5
1F6
330
4E
100
AcDbEntity
  8
0
  6
Continuous
 62
     7
100
AcDbLine
 10
-122.7000777806816
 20
-103.7095689936891
 30
0.0
 11
-122.7000777806814
 21
-104.0750390474879
 31
0.0
  0
LINE
  5
1F7
330
4E
100
AcDbEntity
  8
0
  6
Continuous
 62
     7
100
AcDbLine
 10
-122.7000777806814
 20
-104.0750390474879
 30
0.0
 11
-122.7000777806814
 21
-104.6750390474879
 31
0.0
  0
LINE
  5
1F8
330
4E
100
AcDbEntity
  8
0
  6
Continuous
 62
     7
100
AcDbLine
 10
-127.7000777807928
 20
-104.0750390474869
 30
0.0
 11
-127.7000777807928
 21
-104.6750390474869
 31
0.0
  0
LINE
  5
1F9
330
4E
100
AcDbEntity
  8
0
  6
Continuous
 62
     7
100
AcDbLine
 10
-127.7000777807928
 20
-104.0750390474869
 30
0.0
 11
-124.0614584564591
 21
-104.0750390474869
 31
0.0
  0
LINE
  5
1FA
330
4E
100
AcDbEntity
  8
0
  6
Continuous
 62
     7
100
AcDbLine
 10
-124.0614584564591
 20
-104.675039047487
 30
0.0
 11
-124.0614584564591
 21
-104.0750390474869
 31
0.0
  0
LINE
  5
1FB
330
4E
100
AcDbEntity
  8
0
  6
Continuous
 62
     7
100
AcDbLine
 10
-127.7000777807928
 20
-104.6750390474869
 30
0.0
 11
-127.7000777807932
 21
-105.5750390474606
 31
0.0
  0
LINE
  5
1FC
330
4E
100
AcDbEntity
  8
0
  6
Continuous
 62
     7
100
AcDbLine
 10
-127.7000777807932
 20
-105.5750390474606
 30
0.0
 11
-127.700077780792
 21
-110.0166642567837
 31
0.0
  0
LINE
  5
1FD
330
4E
100
AcDbEntity
  8
0
  6
Continuous
 62
     7
100
AcDbLine
 10
-127.700077780792
 20
-110.0166642567837
 30
0.0
 11
-127.7703877846233
 21
-110.0203490479716
 31
0.0
  0
LINE
  5
1FE
330
4E
100
AcDbEntity
  8
0
  6
Continuous
 62
     7
100
AcDbLine
 10
-127.7703877846233
 20
-110.0203490479716
 30
0.0
 11
-128.3369067231231
 21
-110.0500390474335
 31
0.0
  0
LINE
  5
1FF
330
4E
100
AcDbEntity
  8
0
  6
Continuous
 62
     7
100
AcDbLine
 10
-122.7000777806814
 20
-104.6750390474879
 30
0.0
 11
-124.0614584564591
 21
-104.675039047487
 31
0.0
  0
LINE
  5
200
330
4E
100
AcDbEntity
  8
0
  6
Continuous
 62
     7
100
AcDbLine
 10
-124.0614584564591
 20
-104.675039047487
 30
0.0
 11
-127.7000777807928
 21
-104.6750390474869
 31
0.0
  0
LINE
  5
201
330
4E
100
AcDbEntity
  8
0
  6
Continuous
 62
     7
100
AcDbLine
 10
-122.7000777806816
 20
-105.040509101289
 30
0.0
 11
-122.7000777806814
 21
-104.6750390474879
 31
0.0
  0
LINE
  5
202
330
4E
100
AcDbEntity
  8
0
  6
Continuous
 62
     7
100
AcDbLine
 10
-124.0614584564591
 20
-104.0750390474869
 30
0.0
 11
-122.7000777806814
 21
-104.0750390474879
 31
0.0
  0
LINE
  5
203
330
4E
100
AcDbEntity
  8
0
  6
Continuous
 62
     7
100
AcDbLine
 10
-128.9312246529346
 20
-110.8811859303476
 30
0.0
 11
-128.5000777807508
 21
-110.450039047475
 31
0.0
  0
LINE
  5
204
330
4E
100
AcDbEntity
  8
0
  6
Continuous
 62
     7
100
AcDbLine
 10
-127.7000777807932
 20
-105.5750390474606
 30
0.0
 11
-123.5633831001763
 21
-105.5389386598921
 31
0.0
  0
LINE
  5
205
330
4E
100
AcDbEntity
  8
0
  6
Continuous
 62
     7
100
AcDbLine
 10
-127.7703877846233
 20
-110.0203490479716
 30
0.0
 11
-128.200077780677
 21
-110.4500390474712
 31
0.0
  0
LINE
  5
206
330
4E
100
AcDbEntity
  8
0
  6
Continuous
 62
     7
100
AcDbLine
 10
-123.5633831001763
 20
-105.5389386598921
 30
0.0
 11
-122.7000777806816
 21
-105.040509101289
 31
0.0
  0
LINE
  5
207
330
4E
100
AcDbEntity
  8
0
  6
Continuous
 62
     7
100
AcDbLine
 10
-128.9312246529346
 20
-110.8811859303476
 30
0.0
 11
-128.3369067356725
 21
-110.8500390480896
 31
0.0
  0
LINE
  5
208
330
4E
100
AcDbEntity
  8
0
  6
Continuous
 62
     7
100
AcDbLine
 10
-122.7000777806816
 20
-103.7095689936891
 30
0.0
 11
-123.5633831001764
 21
-103.2111394350859
 31
0.0
  0
LINE
  5
209
330
4E
100
AcDbEntity
  8
0
  6
Continuous
 62
     7
100
AcDbLine
 10
-123.5633831001764
 20
-103.2111394350859
 30
0.0
 11
-127.7000777807932
 21
-103.1750390475174
 31
0.0
  0
LINE
  5
20A
330
4E
100
AcDbEntity
  8
0
  6
Continuous
 62
     7
100
AcDbLine
 10
-128.3369071142069
 20
-73.60003906787352
 30
0.0
 11
-128.9312246754671
 21
-73.5688921633891
 31
0.0
  0
LINE
  5
20B
330
4E
100
AcDbEntity
  8
0
  6
Continuous
 62
     7
100
AcDbLine
 10
-128.9312246529436
 20
-74.43118593034804
 30
0.0
 11
-128.3369067273511
 21
-74.4000390476535
 31
0.0
  0
LINE
  5
20C
330
4E
100
AcDbEntity
  8
0
  6
Continuous
 62
     7
100
AcDbLine
 10
-128.9312246529436
 20
-74.43118593034804
 30
0.0
 11
-128.5000777807622
 21
-74.00003904747149
 31
0.0
  0
LINE
  5
20D
330
4E
100
AcDbEntity
  8
0
  6
Continuous
 62
     7
100
AcDbLine
 10
-129.2000777807922
 20
-74.44527592570633
 30
0.0
 11
-128.9312246529436
 21
-74.43118593034804
 31
0.0
  0
LINE
  5
20E
330
4E
100
AcDbEntity
  8
0
  6
Continuous
 62
     7
100
AcDbLine
 10
-128.5000777807622
 20
-74.00003904747149
 30
0.0
 11
-128.2000777807799
 21
-74.000039047477
 31
0.0
  0
LINE
  5
20F
330
4E
100
AcDbEntity
  8
0
  6
Continuous
 62
     7
100
AcDbLine
 10
-128.9312246754641
 20
-85.71889216338924
 30
0.0
 11
-129.2000777807922
 21
-85.7048021691598
 31
0.0
  0
LINE
  5
210
330
4E
100
AcDbEntity
  8
0
  6
Continuous
 62
     7
100
AcDbLine
 10
-128.3369071131358
 20
-85.75003902699383
 30
0.0
 11
-128.9312246754641
 21
-85.71889216338924
 31
0.0
  0
LINE
  5
211
330
4E
100
AcDbEntity
  8
0
  6
Continuous
 62
     7
100
AcDbLine
 10
-129.2000777807922
 20
-85.7048021691598
 30
0.0
 11
-129.2000777807922
 21
-74.44527592570633
 31
0.0
  0
LINE
  5
212
330
4E
100
AcDbEntity
  8
0
  6
Continuous
 62
     7
100
AcDbLine
 10
-127.700077780792
 20
-85.71666425678372
 30
0.0
 11
-127.7703877847348
 21
-85.7203490479774
 31
0.0
  0
LINE
  5
213
330
4E
100
AcDbEntity
  8
0
  6
Continuous
 62
     7
100
AcDbLine
 10
-127.7703877847348
 20
-85.7203490479774
 30
0.0
 11
-128.3369071131358
 21
-85.75003902699383
 31
0.0
  0
LINE
  5
214
330
4E
100
AcDbEntity
  8
0
  6
Continuous
 62
     7
100
AcDbLine
 10
-128.3369067273511
 20
-74.4000390476535
 30
0.0
 11
-127.7703878071878
 21
-74.4297290457635
 31
0.0
  0
LINE
  5
215
330
4E
100
AcDbEntity
  8
0
  6
Continuous
 62
     7
100
AcDbLine
 10
-127.7703878071878
 20
-74.4297290457635
 30
0.0
 11
-127.700077780792
 21
-74.43341383808227
 31
0.0
  0
LINE
  5
216
330
4E
100
AcDbEntity
  8
0
  6
Continuous
 62
     7
100
AcDbLine
 10
-127.700077780792
 20
-73.56666425678372
 30
0.0
 11
-127.7703877847379
 21
-73.57034904797756
 31
0.0
  0
LINE
  5
217
330
4E
100
AcDbEntity
  8
0
  6
Continuous
 62
     7
100
AcDbLine
 10
-127.7703877847379
 20
-73.57034904797756
 30
0.0
 11
-128.3369071142069
 21
-73.60003906787352
 31
0.0
  0
LINE
  5
218
330
4E
100
AcDbEntity
  8
0
  6
Continuous
 62
     7
100
AcDbLine
 10
-128.2000777807799
 20
-74.000039047477
 30
0.0
 11
-127.7703878071878
 21
-74.4297290457635
 31
0.0
  0
LINE
  5
219
330
4E
100
AcDbEntity
  8
0
  6
Continuous
 62
     7
100
AcDbLine
 10
-127.7703877847379
 20
-73.57034904797756
 30
0.0
 11
-128.2000777807799
 21
-74.000039047477
 31
0.0
  0
LINE
  5
21A
330
4E
100
AcDbEntity
  8
0
  6
Continuous
 62
     7
100
AcDbLine
 10
-128.5000777807622
 20
-74.00003904747149
 30
0.0
 11
-128.9312246754671
 21
-73.5688921633891
 31
0.0
  0
LINE
  5
21B
330
4E
100
AcDbEntity
  8
0
  6
Continuous
 62
     7
100
AcDbLine
 10
-122.7000777806816
 20
-91.55956899368904
 30
0.0
 11
-123.5633831001764
 21
-91.06113943508586
 31
0.0
  0
ENDBLK
  5
50
330
4E
100
AcDbEntity
  8
0
100
AcDbBlockEnd
  0
BLOCK
  5
53
330
51
100
AcDbEntity
  8
0
100
AcDbBlockBegin
  2
Drfsicht1
 70
     0
 10
-125.9500770244918
 20
-92.22503861810696
 30
0.0
  3
Drfsicht1
  1

  0
INSERT
  5
52
330
51
100
AcDbEntity
  8
0
100
AcDbBlockReference
  2
WS_PT_16-select__2
 10
-129.2000777807922
 20
-122.2000390474336
 30
0.0
  0
MTEXT
  5
21C
330
51
100
AcDbEntity
  8
1
 62
     6
100
AcDbMText
 10
-125.9500770244918
 20
-124.7000577154505
 30
0.0
 40
2.5
 41
0.0
 71
     2
 72
     1
  1
 
  7
CONVERTER_11
 73
     1
 44
1.32052821128451
  0
ENDBLK
  5
54
330
51
100
AcDbEntity
  8
0
100
AcDbBlockEnd
  0
BLOCK
  5
56
330
55
100
AcDbEntity
  8
0
100
AcDbBlockBegin
  2
WS_PT_16-select__3
 70
     0
 10
-39.24999840240735
 20
-47.24999983708122
 30
0.0
  3
WS_PT_16-select__3
  1

  0
LINE
  5
21D
330
55
100
AcDbEntity
  8
0
  6
Continuous
 62
     7
100
AcDbLine
 10
-39.24999840240678
 20
-39.60346527561419
 30
0.0
 11
-39.24999840240695
 21
-39.19999987805532
 31
0.0
  0
LINE
  5
21E
330
55
100
AcDbEntity
  8
0
  6
Continuous
 62
     7
100
AcDbLine
 10
-39.24999840240735
 20
-38.19653448049358
 30
0.0
 11
-39.24999840240719
 21
-38.59999987799029
 31
0.0
  0
LINE
  5
21F
330
55
100
AcDbEntity
  8
0
  6
Continuous
 62
     7
100
AcDbLine
 10
-32.74999840229186
 20
-47.20476295880646
 30
0.0
 11
-32.74999840229651
 21
-35.79523673583343
 31
0.0
  0
LINE
  5
220
330
55
100
AcDbEntity
  8
0
  6
Continuous
 62
     7
100
AcDbLine
 10
-33.61316945573768
 20
-35.74999989833013
 30
0.0
 11
-34.24999840229673
 21
-35.78337468920179
 31
0.0
  0
LINE
  5
221
330
55
100
AcDbEntity
  8
0
  6
Continuous
 62
     7
100
AcDbLine
 10
-39.24999840240695
 20
-39.19999987805532
 30
0.0
 11
-39.24999840240719
 21
-38.59999987799029
 31
0.0
  0
LINE
  5
222
330
55
100
AcDbEntity
  8
0
  6
Continuous
 62
     7
100
AcDbLine
 10
-38.38669308291237
 20
-38.59999987805726
 30
0.0
 11
-38.38669308291212
 21
-39.19999987805726
 31
0.0
  0
LINE
  5
223
330
55
100
AcDbEntity
  8
0
  6
Continuous
 62
     7
100
AcDbLine
 10
-37.88861772662969
 20
-37.83175362782701
 30
0.0
 11
-39.24999840240735
 21
-38.19653448049358
 31
0.0
  0
LINE
  5
224
330
55
100
AcDbEntity
  8
0
  6
Continuous
 62
     7
100
AcDbLine
 10
-33.61316945996075
 20
-47.24999983708122
 30
0.0
 11
-34.24999840229214
 21
-47.21662504643116
 31
0.0
  0
LINE
  5
225
330
55
100
AcDbEntity
  8
0
  6
Continuous
 62
     7
100
AcDbLine
 10
-33.61316945996075
 20
-47.24999983708122
 30
0.0
 11
-33.61316945573768
 21
-35.74999989833013
 31
0.0
  0
LINE
  5
226
330
55
100
AcDbEntity
  8
0
  6
Continuous
 62
     7
100
AcDbLine
 10
-32.74999840229186
 20
-47.20476295880646
 30
0.0
 11
-33.61316945996075
 21
-47.24999983708122
 31
0.0
  0
LINE
  5
227
330
55
100
AcDbEntity
  8
0
  6
Continuous
 62
     7
100
AcDbLine
 10
-37.88861772661811
 20
-39.96824612828252
 30
0.0
 11
-34.24999840229503
 21
-39.9999998780653
 31
0.0
  0
LINE
  5
228
330
55
100
AcDbEntity
  8
0
  6
Continuous
 62
     7
100
AcDbLine
 10
-38.38669308291212
 20
-39.19999987805726
 30
0.0
 11
-39.24999840240695
 21
-39.19999987805532
 31
0.0
  0
LINE
  5
229
330
55
100
AcDbEntity
  8
0
  6
Continuous
 62
     7
100
AcDbLine
 10
-34.24999840229536
 20
-39.19999987805567
 30
0.0
 11
-38.38669308291212
 21
-39.19999987805726
 31
0.0
  0
LINE
  5
22A
330
55
100
AcDbEntity
  8
0
  6
Continuous
 62
     7
100
AcDbLine
 10
-32.74999840229651
 20
-35.79523673583343
 30
0.0
 11
-33.61316945573768
 21
-35.74999989833013
 31
0.0
  0
LINE
  5
22B
330
55
100
AcDbEntity
  8
0
  6
Continuous
 62
     7
100
AcDbLine
 10
-34.24999840229503
 20
-39.9999998780653
 30
0.0
 11
-34.24999840229536
 21
-39.19999987805567
 31
0.0
  0
LINE
  5
22C
330
55
100
AcDbEntity
  8
0
  6
Continuous
 62
     7
100
AcDbLine
 10
-34.24999840229214
 20
-47.21662504643116
 30
0.0
 11
-34.24999840229503
 21
-39.9999998780653
 31
0.0
  0
LINE
  5
22D
330
55
100
AcDbEntity
  8
0
  6
Continuous
 62
     7
100
AcDbLine
 10
-34.2499984022956
 20
-38.59999987805567
 30
0.0
 11
-34.24999840229592
 21
-37.79999987804215
 31
0.0
  0
LINE
  5
22E
330
55
100
AcDbEntity
  8
0
  6
Continuous
 62
     7
100
AcDbLine
 10
-34.24999840229592
 20
-37.79999987804215
 30
0.0
 11
-34.24999840229673
 21
-35.78337468920179
 31
0.0
  0
LINE
  5
22F
330
55
100
AcDbEntity
  8
0
  6
Continuous
 62
     7
100
AcDbLine
 10
-34.24999840229536
 20
-39.19999987805567
 30
0.0
 11
-34.2499984022956
 21
-38.59999987805567
 31
0.0
  0
LINE
  5
230
330
55
100
AcDbEntity
  8
0
  6
Continuous
 62
     7
100
AcDbLine
 10
-39.24999840240719
 20
-38.59999987799029
 30
0.0
 11
-38.38669308291237
 21
-38.59999987805726
 31
0.0
  0
LINE
  5
231
330
55
100
AcDbEntity
  8
0
  6
Continuous
 62
     7
100
AcDbLine
 10
-38.38669308291237
 20
-38.59999987805726
 30
0.0
 11
-34.2499984022956
 21
-38.59999987805567
 31
0.0
  0
LINE
  5
232
330
55
100
AcDbEntity
  8
0
  6
Continuous
 62
     7
100
AcDbLine
 10
-34.24999840229592
 20
-37.79999987804215
 30
0.0
 11
-37.88861772662969
 21
-37.83175362782701
 31
0.0
  0
LINE
  5
233
330
55
100
AcDbEntity
  8
0
  6
Continuous
 62
     7
100
AcDbLine
 10
-39.24999840240678
 20
-39.60346527561419
 30
0.0
 11
-37.88861772661811
 21
-39.96824612828252
 31
0.0
  0
ENDBLK
  5
57
330
55
100
AcDbEntity
  8
0
100
AcDbBlockEnd
  0
BLOCK
  5
5A
330
58
100
AcDbEntity
  8
0
100
AcDbBlockBegin
  2
Rckans1
 70
     0
 10
-35.99999915859701
 20
-41.49999997016398
 30
0.0
  3
Rckans1
  1

  0
INSERT
  5
59
330
58
100
AcDbEntity
  8
0
100
AcDbBlockReference
  2
WS_PT_16-select__3
 10
-39.24999840240735
 20
-47.24999983708122
 30
0.0
  0
MTEXT
  5
234
330
58
100
AcDbEntity
  8
1
 62
     6
100
AcDbMText
 10
-35.99999915859701
 20
-49.7500198483944
 30
0.0
 40
2.5
 41
0.0
 71
     2
 72
     1
  1
 
  7
CONVERTER_11
 73
     1
 44
1.32052821128451
  0
ENDBLK
  5
5B
330
58
100
AcDbEntity
  8
0
100
AcDbBlockEnd
  0
BLOCK
  5
5D
330
5C
100
AcDbEntity
  8
0
100
AcDbBlockBegin
  2
WS_PT_16-select__4
 70
     0
 10
-108.2000403143564
 20
-47.24999983714726
 30
0.0
  3
WS_PT_16-select__4
  1

  0
LINE
  5
235
330
5C
100
AcDbEntity
  8
0
  6
Continuous
 62
     7
100
AcDbLine
 10
-60.40004031440896
 20
-35.74999987838176
 30
0.0
 11
-71.75004029397057
 21
-35.74999987792392
 31
0.0
  0
LINE
  5
236
330
5C
100
AcDbEntity
  8
0
  6
Continuous
 62
     7
100
AcDbLine
 10
-60.44527719268268
 20
-35.79523673561754
 30
0.0
 11
-71.70480343613616
 21
-35.79523673570147
 31
0.0
  0
LINE
  5
237
330
5C
100
AcDbEntity
  8
0
  6
Continuous
 62
     7
100
AcDbLine
 10
-48.29527719268268
 20
-35.79523673555154
 30
0.0
 11
-59.55480343613617
 21
-35.79523673563546
 31
0.0
  0
LINE
  5
238
330
5C
100
AcDbEntity
  8
0
  6
Continuous
 62
     7
100
AcDbLine
 10
-96.89527719268268
 20
-35.7952367358097
 30
0.0
 11
-108.1548034361362
 21
-35.79523673589361
 31
0.0
  0
LINE
  5
239
330
5C
100
AcDbEntity
  8
0
  6
Continuous
 62
     7
100
AcDbLine
 10
-83.85480343613617
 20
-35.79523673576748
 30
0.0
 11
-83.90004029391488
 21
-35.74999987799008
 31
0.0
  0
LINE
  5
23A
330
5C
100
AcDbEntity
  8
0
  6
Continuous
 62
     7
100
AcDbLine
 10
-72.59527719268269
 20
-35.79523673568355
 30
0.0
 11
-83.85480343613617
 21
-35.79523673576748
 31
0.0
  0
LINE
  5
23B
330
5C
100
AcDbEntity
  8
0
  6
Continuous
 62
     7
100
AcDbLine
 10
-72.55004033484866
 20
-35.74999987796146
 30
0.0
 11
-72.59527719268269
 21
-35.79523673568355
 31
0.0
  0
LINE
  5
23C
330
5C
100
AcDbEntity
  8
0
  6
Continuous
 62
     7
100
AcDbLine
 10
-72.55004033484866
 20
-35.74999987796146
 30
0.0
 11
-83.90004029391488
 21
-35.74999987799008
 31
0.0
  0
LINE
  5
23D
330
5C
100
AcDbEntity
  8
0
  6
Continuous
 62
     7
100
AcDbLine
 10
-96.85004029396896
 20
-35.74999987803734
 30
0.0
 11
-108.2000403143564
 21
-35.74999987812193
 31
0.0
  0
LINE
  5
23E
330
5C
100
AcDbEntity
  8
0
  6
Continuous
 62
     7
100
AcDbLine
 10
-60.40004031440896
 20
-35.74999987838176
 30
0.0
 11
-60.44527719268268
 21
-35.79523673561754
 31
0.0
  0
LINE
  5
23F
330
5C
100
AcDbEntity
  8
0
  6
Continuous
 62
     7
100
AcDbLine
 10
-71.70480343613616
 20
-35.79523673570147
 30
0.0
 11
-71.75004029397057
 21
-35.74999987792392
 31
0.0
  0
LINE
  5
240
330
5C
100
AcDbEntity
  8
0
  6
Continuous
 62
     7
100
AcDbLine
 10
-59.55480343613617
 20
-35.79523673563546
 30
0.0
 11
-59.60004031375287
 21
-35.74999985801978
 31
0.0
  0
LINE
  5
241
330
5C
100
AcDbEntity
  8
0
  6
Continuous
 62
     7
100
AcDbLine
 10
-48.25004031440895
 20
-35.74999987831874
 30
0.0
 11
-48.29527719268268
 21
-35.79523673555154
 31
0.0
  0
LINE
  5
242
330
5C
100
AcDbEntity
  8
0
  6
Continuous
 62
     7
100
AcDbLine
 10
-48.25004031440895
 20
-35.74999987831874
 30
0.0
 11
-59.60004031375287
 21
-35.74999985801978
 31
0.0
  0
LINE
  5
243
330
5C
100
AcDbEntity
  8
0
  6
Continuous
 62
     7
100
AcDbLine
 10
-48.25004031432324
 20
-47.24999983679866
 30
0.0
 11
-48.25004031440895
 21
-35.74999987831874
 31
0.0
  0
LINE
  5
244
330
5C
100
AcDbEntity
  8
0
  6
Continuous
 62
     7
100
AcDbLine
 10
-60.44527719268268
 20
-35.79523673561754
 30
0.0
 11
-60.44527719259764
 21
-47.20476295859059
 31
0.0
  0
LINE
  5
245
330
5C
100
AcDbEntity
  8
0
  6
Continuous
 62
     7
100
AcDbLine
 10
-48.29527719268268
 20
-35.79523673555154
 30
0.0
 11
-48.29527719259765
 21
-47.20476295852458
 31
0.0
  0
LINE
  5
246
330
5C
100
AcDbEntity
  8
0
  6
Continuous
 62
     7
100
AcDbLine
 10
-60.4000403143495
 20
-43.72499986800257
 30
0.0
 11
-60.00004031437227
 21
-43.32499987120806
 31
0.0
  0
LINE
  5
247
330
5C
100
AcDbEntity
  8
0
  6
Continuous
 62
     7
100
AcDbLine
 10
-59.60004031435111
 20
-43.72499987122166
 30
0.0
 11
-59.56889343146639
 21
-43.75614675412375
 31
0.0
  0
LINE
  5
248
330
5C
100
AcDbEntity
  8
0
  6
Continuous
 62
     7
100
AcDbLine
 10
-59.56889343149489
 20
-39.24385300194359
 30
0.0
 11
-59.60004031438427
 21
-39.27499988481466
 31
0.0
  0
LINE
  5
249
330
5C
100
AcDbEntity
  8
0
  6
Continuous
 62
     7
100
AcDbLine
 10
-59.56889343146639
 20
-43.75614675412375
 30
0.0
 11
-59.56889343149489
 21
-39.24385300194359
 31
0.0
  0
LINE
  5
24A
330
5C
100
AcDbEntity
  8
0
  6
Continuous
 62
     7
100
AcDbLine
 10
-60.00004031437227
 20
-43.32499987120806
 30
0.0
 11
-60.00004031436747
 21
-39.67499988480306
 31
0.0
  0
LINE
  5
24B
330
5C
100
AcDbEntity
  8
0
  6
Continuous
 62
     7
100
AcDbLine
 10
-60.43118719845292
 20
-39.24385299476705
 30
0.0
 11
-60.4311871984094
 21
-43.75614675183337
 31
0.0
  0
LINE
  5
24C
330
5C
100
AcDbEntity
  8
0
  6
Continuous
 62
     7
100
AcDbLine
 10
-71.70480343605112
 20
-47.2047629586745
 30
0.0
 11
-71.70480343613616
 21
-35.79523673570147
 31
0.0
  0
LINE
  5
24D
330
5C
100
AcDbEntity
  8
0
  6
Continuous
 62
     7
100
AcDbLine
 10
-59.55480343605113
 20
-47.20476295860851
 30
0.0
 11
-59.55480343613617
 21
-35.79523673563546
 31
0.0
  0
LINE
  5
24E
330
5C
100
AcDbEntity
  8
0
  6
Continuous
 62
     7
100
AcDbLine
 10
-72.59527719268269
 20
-35.79523673568355
 30
0.0
 11
-72.59527719259765
 21
-47.20476295865659
 31
0.0
  0
LINE
  5
24F
330
5C
100
AcDbEntity
  8
0
  6
Continuous
 62
     7
100
AcDbLine
 10
-72.5500403143827
 20
-39.27499987908873
 30
0.0
 11
-72.58118719845308
 21
-39.2438529946044
 31
0.0
  0
LINE
  5
250
330
5C
100
AcDbEntity
  8
0
  6
Continuous
 62
     7
100
AcDbLine
 10
-72.58118719845308
 20
-39.2438529946044
 30
0.0
 11
-72.58118719840957
 21
-43.75614675167112
 31
0.0
  0
LINE
  5
251
330
5C
100
AcDbEntity
  8
0
  6
Continuous
 62
     7
100
AcDbLine
 10
-83.85480343605113
 20
-47.20476295874051
 30
0.0
 11
-83.85480343613617
 21
-35.79523673576748
 31
0.0
  0
LINE
  5
252
330
5C
100
AcDbEntity
  8
0
  6
Continuous
 62
     7
100
AcDbLine
 10
-83.90004031435112
 20
-43.72499987113058
 30
0.0
 11
-83.86889343146609
 21
-43.75614675403297
 31
0.0
  0
LINE
  5
253
330
5C
100
AcDbEntity
  8
0
  6
Continuous
 62
     7
100
AcDbLine
 10
-83.86889343146609
 20
-43.75614675403297
 30
0.0
 11
-83.8688934314946
 21
-39.24385300185233
 31
0.0
  0
LINE
  5
254
330
5C
100
AcDbEntity
  8
0
  6
Continuous
 62
     7
100
AcDbLine
 10
-71.7500403143511
 20
-43.72499987105918
 30
0.0
 11
-71.71889343146623
 21
-43.75614675396141
 31
0.0
  0
LINE
  5
255
330
5C
100
AcDbEntity
  8
0
  6
Continuous
 62
     7
100
AcDbLine
 10
-83.8688934314946
 20
-39.24385300185233
 30
0.0
 11
-83.90004031438428
 21
-39.27499988472368
 31
0.0
  0
LINE
  5
256
330
5C
100
AcDbEntity
  8
0
  6
Continuous
 62
     7
100
AcDbLine
 10
-84.70004031434951
 20
-43.72499986791159
 30
0.0
 11
-84.30004031437184
 21
-43.32499987111451
 31
0.0
  0
LINE
  5
257
330
5C
100
AcDbEntity
  8
0
  6
Continuous
 62
     7
100
AcDbLine
 10
-84.73118719845326
 20
-39.24385299467564
 30
0.0
 11
-84.73118719840974
 21
-43.75614675174271
 31
0.0
  0
LINE
  5
258
330
5C
100
AcDbEntity
  8
0
  6
Continuous
 62
     7
100
AcDbLine
 10
-84.30004031437184
 20
-43.32499987111451
 30
0.0
 11
-84.30004031437099
 21
-39.67499988471559
 31
0.0
  0
LINE
  5
259
330
5C
100
AcDbEntity
  8
0
  6
Continuous
 62
     7
100
AcDbLine
 10
-71.71889343146623
 20
-43.75614675396141
 30
0.0
 11
-71.71889343149478
 21
-39.24385300178105
 31
0.0
  0
LINE
  5
25A
330
5C
100
AcDbEntity
  8
0
  6
Continuous
 62
     7
100
AcDbLine
 10
-72.15004031437151
 20
-43.3249998710449
 30
0.0
 11
-72.15004031436459
 21
-39.67499988464844
 31
0.0
  0
LINE
  5
25B
330
5C
100
AcDbEntity
  8
0
  6
Continuous
 62
     7
100
AcDbLine
 10
-71.75004031438426
 20
-39.27499988465226
 30
0.0
 11
-72.15004031436459
 21
-39.67499988464844
 31
0.0
  0
LINE
  5
25C
330
5C
100
AcDbEntity
  8
0
  6
Continuous
 62
     7
100
AcDbLine
 10
-71.71889343149478
 20
-39.24385300178105
 30
0.0
 11
-71.75004031438426
 21
-39.27499988465226
 31
0.0
  0
LINE
  5
25D
330
5C
100
AcDbEntity
  8
0
  6
Continuous
 62
     7
100
AcDbLine
 10
-84.30004031437099
 20
-39.67499988471559
 30
0.0
 11
-84.70004031438269
 21
-39.27499987916013
 31
0.0
  0
LINE
  5
25E
330
5C
100
AcDbEntity
  8
0
  6
Continuous
 62
     7
100
AcDbLine
 10
-72.55004031434952
 20
-43.72499986784018
 30
0.0
 11
-72.15004031437151
 21
-43.3249998710449
 31
0.0
  0
LINE
  5
25F
330
5C
100
AcDbEntity
  8
0
  6
Continuous
 62
     7
100
AcDbLine
 10
-83.90004031438428
 20
-39.27499988472368
 30
0.0
 11
-84.30004031437099
 21
-39.67499988471559
 31
0.0
  0
LINE
  5
260
330
5C
100
AcDbEntity
  8
0
  6
Continuous
 62
     7
100
AcDbLine
 10
-84.30004031437184
 20
-43.32499987111451
 30
0.0
 11
-83.90004031435112
 21
-43.72499987113058
 31
0.0
  0
LINE
  5
261
330
5C
100
AcDbEntity
  8
0
  6
Continuous
 62
     7
100
AcDbLine
 10
-72.15004031437151
 20
-43.3249998710449
 30
0.0
 11
-71.7500403143511
 21
-43.72499987105918
 31
0.0
  0
LINE
  5
262
330
5C
100
AcDbEntity
  8
0
  6
Continuous
 62
     7
100
AcDbLine
 10
-72.15004031436459
 20
-39.67499988464844
 30
0.0
 11
-72.5500403143827
 21
-39.27499987908873
 31
0.0
  0
LINE
  5
263
330
5C
100
AcDbEntity
  8
0
  6
Continuous
 62
     7
100
AcDbLine
 10
-59.60004031438427
 20
-39.27499988481466
 30
0.0
 11
-60.00004031436747
 21
-39.67499988480306
 31
0.0
  0
LINE
  5
264
330
5C
100
AcDbEntity
  8
0
  6
Continuous
 62
     7
100
AcDbLine
 10
-60.00004031437227
 20
-43.32499987120806
 30
0.0
 11
-59.60004031435111
 21
-43.72499987122166
 31
0.0
  0
LINE
  5
265
330
5C
100
AcDbEntity
  8
0
  6
Continuous
 62
     7
100
AcDbLine
 10
-96.85004031438268
 20
-39.27499987923157
 30
0.0
 11
-96.85004029396896
 21
-35.74999987803734
 31
0.0
  0
LINE
  5
266
330
5C
100
AcDbEntity
  8
0
  6
Continuous
 62
     7
100
AcDbLine
 10
-96.05004031438428
 20
-39.27499988479507
 30
0.0
 11
-96.050040314189
 21
-35.74999989833018
 31
0.0
  0
LINE
  5
267
330
5C
100
AcDbEntity
  8
0
  6
Continuous
 62
     7
100
AcDbLine
 10
-96.00480343605113
 20
-47.20476295880651
 30
0.0
 11
-96.00480343613617
 21
-35.79523673583348
 31
0.0
  0
LINE
  5
268
330
5C
100
AcDbEntity
  8
0
  6
Continuous
 62
     7
100
AcDbLine
 10
-84.74527719268269
 20
-35.79523673574956
 30
0.0
 11
-84.74527719259765
 21
-47.20476295872259
 31
0.0
  0
LINE
  5
269
330
5C
100
AcDbEntity
  8
0
  6
Continuous
 62
     7
100
AcDbLine
 10
-96.01889343149446
 20
-39.24385300192357
 30
0.0
 11
-96.05004031438428
 21
-39.27499988479507
 31
0.0
  0
LINE
  5
26A
330
5C
100
AcDbEntity
  8
0
  6
Continuous
 62
     7
100
AcDbLine
 10
-96.05004031438428
 20
-39.27499988479507
 30
0.0
 11
-96.45004031437102
 21
-39.67499988478701
 31
0.0
  0
LINE
  5
26B
330
5C
100
AcDbEntity
  8
0
  6
Continuous
 62
     7
100
AcDbLine
 10
-96.85004031434951
 20
-43.72499986798299
 30
0.0
 11
-96.4500403143708
 21
-43.32499987118699
 31
0.0
  0
LINE
  5
26C
330
5C
100
AcDbEntity
  8
0
  6
Continuous
 62
     7
100
AcDbLine
 10
-96.88118719840989
 20
-43.75614675181425
 30
0.0
 11
-96.85004031434951
 21
-43.72499986798299
 31
0.0
  0
LINE
  5
26D
330
5C
100
AcDbEntity
  8
0
  6
Continuous
 62
     7
100
AcDbLine
 10
-96.4500403143708
 20
-43.32499987118699
 30
0.0
 11
-96.45004031437102
 21
-39.67499988478701
 31
0.0
  0
LINE
  5
26E
330
5C
100
AcDbEntity
  8
0
  6
Continuous
 62
     7
100
AcDbLine
 10
-96.01889343146593
 20
-43.75614675410456
 30
0.0
 11
-96.01889343149446
 21
-39.24385300192357
 31
0.0
  0
LINE
  5
26F
330
5C
100
AcDbEntity
  8
0
  6
Continuous
 62
     7
100
AcDbLine
 10
-96.8811871984534
 20
-39.24385299474691
 30
0.0
 11
-96.88118719840989
 21
-43.75614675181425
 31
0.0
  0
LINE
  5
270
330
5C
100
AcDbEntity
  8
0
  6
Continuous
 62
     7
100
AcDbLine
 10
-96.4500403143708
 20
-43.32499987118699
 30
0.0
 11
-96.05004031435112
 21
-43.72499987120201
 31
0.0
  0
LINE
  5
271
330
5C
100
AcDbEntity
  8
0
  6
Continuous
 62
     7
100
AcDbLine
 10
-96.45004031437102
 20
-39.67499988478701
 30
0.0
 11
-96.85004031438268
 21
-39.27499987923157
 31
0.0
  0
LINE
  5
272
330
5C
100
AcDbEntity
  8
0
  6
Continuous
 62
     7
100
AcDbLine
 10
-48.25004031432324
 20
-47.24999983679866
 30
0.0
 11
-59.60004031432484
 21
-47.24999983688324
 31
0.0
  0
LINE
  5
273
330
5C
100
AcDbEntity
  8
0
  6
Continuous
 62
     7
100
AcDbLine
 10
-59.55480343605113
 20
-47.20476295860851
 30
0.0
 11
-59.60004031432484
 21
-47.24999983688324
 31
0.0
  0
LINE
  5
274
330
5C
100
AcDbEntity
  8
0
  6
Continuous
 62
     7
100
AcDbLine
 10
-48.29527719259765
 20
-47.20476295852458
 30
0.0
 11
-59.55480343605113
 21
-47.20476295860851
 31
0.0
  0
LINE
  5
275
330
5C
100
AcDbEntity
  8
0
  6
Continuous
 62
     7
100
AcDbLine
 10
-96.8952771925918
 20
-47.20476295879445
 30
0.0
 11
-96.85004031432318
 21
-47.2499998370626
 31
0.0
  0
LINE
  5
276
330
5C
100
AcDbEntity
  8
0
  6
Continuous
 62
     7
100
AcDbLine
 10
-96.00480343605113
 20
-47.20476295880651
 30
0.0
 11
-96.05004031432485
 21
-47.24999983708128
 31
0.0
  0
LINE
  5
277
330
5C
100
AcDbEntity
  8
0
  6
Continuous
 62
     7
100
AcDbLine
 10
-84.74527719259765
 20
-47.20476295872259
 30
0.0
 11
-84.70004031432333
 21
-47.24999983699674
 31
0.0
  0
LINE
  5
278
330
5C
100
AcDbEntity
  8
0
  6
Continuous
 62
     7
100
AcDbLine
 10
-84.70004031432333
 20
-47.24999983699674
 30
0.0
 11
-96.05004031432485
 21
-47.24999983708128
 31
0.0
  0
LINE
  5
279
330
5C
100
AcDbEntity
  8
0
  6
Continuous
 62
     7
100
AcDbLine
 10
-83.85480343605113
 20
-47.20476295874051
 30
0.0
 11
-83.90004031432485
 21
-47.24999983701526
 31
0.0
  0
LINE
  5
27A
330
5C
100
AcDbEntity
  8
0
  6
Continuous
 62
     7
100
AcDbLine
 10
-72.59527719259765
 20
-47.20476295865659
 30
0.0
 11
-72.55004031432333
 21
-47.24999983693059
 31
0.0
  0
LINE
  5
27B
330
5C
100
AcDbEntity
  8
0
  6
Continuous
 62
     7
100
AcDbLine
 10
-71.70480343605112
 20
-47.2047629586745
 30
0.0
 11
-71.75004031432483
 21
-47.24999983694924
 31
0.0
  0
LINE
  5
27C
330
5C
100
AcDbEntity
  8
0
  6
Continuous
 62
     7
100
AcDbLine
 10
-60.44527719259764
 20
-47.20476295859059
 30
0.0
 11
-60.40004031432325
 21
-47.24999983686459
 31
0.0
  0
LINE
  5
27D
330
5C
100
AcDbEntity
  8
0
  6
Continuous
 62
     7
100
AcDbLine
 10
-48.29527719259765
 20
-47.20476295852458
 30
0.0
 11
-48.25004031432324
 21
-47.24999983679866
 31
0.0
  0
LINE
  5
27E
330
5C
100
AcDbEntity
  8
0
  6
Continuous
 62
     7
100
AcDbLine
 10
-96.8952771925918
 20
-47.20476295879445
 30
0.0
 11
-108.1548034360511
 21
-47.20476295887838
 31
0.0
  0
LINE
  5
27F
330
5C
100
AcDbEntity
  8
0
  6
Continuous
 62
     7
100
AcDbLine
 10
-108.1548034360511
 20
-47.20476295887838
 30
0.0
 11
-108.2000403143248
 21
-47.24999983714726
 31
0.0
  0
LINE
  5
280
330
5C
100
AcDbEntity
  8
0
  6
Continuous
 62
     7
100
AcDbLine
 10
-96.85004031432318
 20
-47.2499998370626
 30
0.0
 11
-108.2000403143248
 21
-47.24999983714726
 31
0.0
  0
LINE
  5
281
330
5C
100
AcDbEntity
  8
0
  6
Continuous
 62
     7
100
AcDbLine
 10
-59.60004031432484
 20
-47.24999983688324
 30
0.0
 11
-59.60004031435111
 21
-43.72499987122166
 31
0.0
  0
LINE
  5
282
330
5C
100
AcDbEntity
  8
0
  6
Continuous
 62
     7
100
AcDbLine
 10
-60.40004031432325
 20
-47.24999983686459
 30
0.0
 11
-71.75004031432483
 21
-47.24999983694924
 31
0.0
  0
LINE
  5
283
330
5C
100
AcDbEntity
  8
0
  6
Continuous
 62
     7
100
AcDbLine
 10
-60.44527719259764
 20
-47.20476295859059
 30
0.0
 11
-71.70480343605112
 21
-47.2047629586745
 31
0.0
  0
LINE
  5
284
330
5C
100
AcDbEntity
  8
0
  6
Continuous
 62
     7
100
AcDbLine
 10
-60.40004031432325
 20
-47.24999983686459
 30
0.0
 11
-60.4000403143495
 21
-43.72499986800257
 31
0.0
  0
LINE
  5
285
330
5C
100
AcDbEntity
  8
0
  6
Continuous
 62
     7
100
AcDbLine
 10
-72.59527719259765
 20
-47.20476295865659
 30
0.0
 11
-83.85480343605113
 21
-47.20476295874051
 31
0.0
  0
LINE
  5
286
330
5C
100
AcDbEntity
  8
0
  6
Continuous
 62
     7
100
AcDbLine
 10
-72.55004031432333
 20
-47.24999983693059
 30
0.0
 11
-72.55004031434952
 21
-43.72499986784018
 31
0.0
  0
LINE
  5
287
330
5C
100
AcDbEntity
  8
0
  6
Continuous
 62
     7
100
AcDbLine
 10
-83.90004031432485
 20
-47.24999983701526
 30
0.0
 11
-83.90004031435112
 21
-43.72499987113058
 31
0.0
  0
LINE
  5
288
330
5C
100
AcDbEntity
  8
0
  6
Continuous
 62
     7
100
AcDbLine
 10
-84.74527719259765
 20
-47.20476295872259
 30
0.0
 11
-96.00480343605113
 21
-47.20476295880651
 31
0.0
  0
LINE
  5
289
330
5C
100
AcDbEntity
  8
0
  6
Continuous
 62
     7
100
AcDbLine
 10
-84.70004031432333
 20
-47.24999983699674
 30
0.0
 11
-84.70004031434951
 21
-43.72499986791159
 31
0.0
  0
LINE
  5
28A
330
5C
100
AcDbEntity
  8
0
  6
Continuous
 62
     7
100
AcDbLine
 10
-96.85004031432318
 20
-47.2499998370626
 30
0.0
 11
-96.85004031434951
 21
-43.72499986798299
 31
0.0
  0
LINE
  5
28B
330
5C
100
AcDbEntity
  8
0
  6
Continuous
 62
     7
100
AcDbLine
 10
-96.05004031432485
 20
-47.24999983708128
 30
0.0
 11
-96.05004031435112
 21
-43.72499987120201
 31
0.0
  0
LINE
  5
28C
330
5C
100
AcDbEntity
  8
0
  6
Continuous
 62
     7
100
AcDbLine
 10
-84.73118719840974
 20
-43.75614675174271
 30
0.0
 11
-84.70004031434951
 21
-43.72499986791159
 31
0.0
  0
LINE
  5
28D
330
5C
100
AcDbEntity
  8
0
  6
Continuous
 62
     7
100
AcDbLine
 10
-96.05004031435112
 20
-43.72499987120201
 30
0.0
 11
-96.01889343146593
 21
-43.75614675410456
 31
0.0
  0
LINE
  5
28E
330
5C
100
AcDbEntity
  8
0
  6
Continuous
 62
     7
100
AcDbLine
 10
-72.55004031432333
 20
-47.24999983693059
 30
0.0
 11
-83.90004031432485
 21
-47.24999983701526
 31
0.0
  0
LINE
  5
28F
330
5C
100
AcDbEntity
  8
0
  6
Continuous
 62
     7
100
AcDbLine
 10
-71.75004031432483
 20
-47.24999983694924
 30
0.0
 11
-71.7500403143511
 21
-43.72499987105918
 31
0.0
  0
LINE
  5
290
330
5C
100
AcDbEntity
  8
0
  6
Continuous
 62
     7
100
AcDbLine
 10
-72.58118719840957
 20
-43.75614675167112
 30
0.0
 11
-72.55004031434952
 21
-43.72499986784018
 31
0.0
  0
LINE
  5
291
330
5C
100
AcDbEntity
  8
0
  6
Continuous
 62
     7
100
AcDbLine
 10
-60.4311871984094
 20
-43.75614675183337
 30
0.0
 11
-60.4000403143495
 21
-43.72499986800257
 31
0.0
  0
LINE
  5
292
330
5C
100
AcDbEntity
  8
0
  6
Continuous
 62
     7
100
AcDbLine
 10
-59.60004031438427
 20
-39.27499988481466
 30
0.0
 11
-59.60004031375287
 21
-35.74999985801978
 31
0.0
  0
LINE
  5
293
330
5C
100
AcDbEntity
  8
0
  6
Continuous
 62
     7
100
AcDbLine
 10
-83.90004031438428
 20
-39.27499988472368
 30
0.0
 11
-83.90004029391488
 21
-35.74999987799008
 31
0.0
  0
LINE
  5
294
330
5C
100
AcDbEntity
  8
0
  6
Continuous
 62
     7
100
AcDbLine
 10
-84.70004033484867
 20
-35.7499998779152
 30
0.0
 11
-96.050040314189
 21
-35.74999989833018
 31
0.0
  0
LINE
  5
295
330
5C
100
AcDbEntity
  8
0
  6
Continuous
 62
     7
100
AcDbLine
 10
-84.74527719268269
 20
-35.79523673574956
 30
0.0
 11
-96.00480343613617
 21
-35.79523673583348
 31
0.0
  0
LINE
  5
296
330
5C
100
AcDbEntity
  8
0
  6
Continuous
 62
     7
100
AcDbLine
 10
-96.85004029396896
 20
-35.74999987803734
 30
0.0
 11
-96.89527719268268
 21
-35.7952367358097
 31
0.0
  0
LINE
  5
297
330
5C
100
AcDbEntity
  8
0
  6
Continuous
 62
     7
100
AcDbLine
 10
-96.00480343613617
 20
-35.79523673583348
 30
0.0
 11
-96.050040314189
 21
-35.74999989833018
 31
0.0
  0
LINE
  5
298
330
5C
100
AcDbEntity
  8
0
  6
Continuous
 62
     7
100
AcDbLine
 10
-84.70004033484867
 20
-35.7499998779152
 30
0.0
 11
-84.74527719268269
 21
-35.79523673574956
 31
0.0
  0
LINE
  5
299
330
5C
100
AcDbEntity
  8
0
  6
Continuous
 62
     7
100
AcDbLine
 10
-84.70004031438269
 20
-39.27499987916013
 30
0.0
 11
-84.70004033484867
 21
-35.7499998779152
 31
0.0
  0
LINE
  5
29A
330
5C
100
AcDbEntity
  8
0
  6
Continuous
 62
     7
100
AcDbLine
 10
-84.70004031438269
 20
-39.27499987916013
 30
0.0
 11
-84.73118719845326
 21
-39.24385299467564
 31
0.0
  0
LINE
  5
29B
330
5C
100
AcDbEntity
  8
0
  6
Continuous
 62
     7
100
AcDbLine
 10
-96.85004031438268
 20
-39.27499987923157
 30
0.0
 11
-96.8811871984534
 21
-39.24385299474691
 31
0.0
  0
LINE
  5
29C
330
5C
100
AcDbEntity
  8
0
  6
Continuous
 62
     7
100
AcDbLine
 10
-72.5500403143827
 20
-39.27499987908873
 30
0.0
 11
-72.55004033484866
 21
-35.74999987796146
 31
0.0
  0
LINE
  5
29D
330
5C
100
AcDbEntity
  8
0
  6
Continuous
 62
     7
100
AcDbLine
 10
-71.75004031438426
 20
-39.27499988465226
 30
0.0
 11
-71.75004029397057
 21
-35.74999987792392
 31
0.0
  0
LINE
  5
29E
330
5C
100
AcDbEntity
  8
0
  6
Continuous
 62
     7
100
AcDbLine
 10
-60.40004031438269
 20
-39.27499987925123
 30
0.0
 11
-60.40004031440896
 21
-35.74999987838176
 31
0.0
  0
LINE
  5
29F
330
5C
100
AcDbEntity
  8
0
  6
Continuous
 62
     7
100
AcDbLine
 10
-60.40004031438269
 20
-39.27499987925123
 30
0.0
 11
-60.43118719845292
 21
-39.24385299476705
 31
0.0
  0
LINE
  5
2A0
330
5C
100
AcDbEntity
  8
0
  6
Continuous
 62
     7
100
AcDbLine
 10
-96.89527719268268
 20
-35.7952367358097
 30
0.0
 11
-96.8952771925918
 21
-47.20476295879445
 31
0.0
  0
LINE
  5
2A1
330
5C
100
AcDbEntity
  8
0
  6
Continuous
 62
     7
100
AcDbLine
 10
-108.1548034360511
 20
-47.20476295887838
 30
0.0
 11
-108.1548034361362
 21
-35.79523673589361
 31
0.0
  0
LINE
  5
2A2
330
5C
100
AcDbEntity
  8
0
  6
Continuous
 62
     7
100
AcDbLine
 10
-108.1548034361362
 20
-35.79523673589361
 30
0.0
 11
-108.2000403143564
 21
-35.74999987812193
 31
0.0
  0
LINE
  5
2A3
330
5C
100
AcDbEntity
  8
0
  6
Continuous
 62
     7
100
AcDbLine
 10
-108.2000403143248
 20
-47.24999983714726
 30
0.0
 11
-108.2000403143564
 21
-35.74999987812193
 31
0.0
  0
LINE
  5
2A4
330
5C
100
AcDbEntity
  8
0
  6
Continuous
 62
     7
100
AcDbLine
 10
-60.00004031436747
 20
-39.67499988480306
 30
0.0
 11
-60.40004031438269
 21
-39.27499987925123
 31
0.0
  0
ENDBLK
  5
5E
330
5C
100
AcDbEntity
  8
0
100
AcDbBlockEnd
  0
BLOCK
  5
61
330
5F
100
AcDbEntity
  8
0
100
AcDbBlockBegin
  2
SA_Links1
 70
     0
 10
-78.22504074373552
 20
-41.49999997016403
 30
0.0
  3
SA_Links1
  1

  0
INSERT
  5
60
330
5F
100
AcDbEntity
  8
0
100
AcDbBlockReference
  2
WS_PT_16-select__4
 10
-108.2000403143564
 20
-47.24999983714726
 30
0.0
  0
MTEXT
  5
2A5
330
5F
100
AcDbEntity
  8
1
 62
     6
100
AcDbMText
 10
-78.22504074373558
 20
-49.75001984839435
 30
0.0
 40
2.5
 41
0.0
 71
     2
 72
     1
  1
 
  7
CONVERTER_11
 73
     1
 44
1.32052821128451
  0
DIMENSION
  5
2B0
330
5F
100
AcDbEntity
  8
1
100
AcDbDimension
  2
*D17
 10
-113.2000403143564
 20
-47.24999983714726
 30
0.0
 11
-114.9125403143564
 21
-41.81668479598295
 31
0.0
 70
    32
  1
<>
 71
     5
 42
-1.0
 53
90.0
  3
ME10_DIM_10
100
AcDbAlignedDimension
 13
-108.2000403143564
 23
-35.74999987812193
 33
0.0
 14
-108.2000403143248
 24
-47.24999983714726
 34
0.0
 50
90.0
100
AcDbRotatedDimension
  0
DIMENSION
  5
2BB
330
5F
100
AcDbEntity
  8
1
100
AcDbDimension
  2
*D18
 10
-108.2000403143248
 20
-52.24999983714726
 30
0.0
 11
-78.22504074373555
 21
-50.62499983714726
 31
0.0
 70
    32
  1
<>
 71
     5
 42
-1.0
 53
0.00013888888889
  3
ME10_DIM_11
100
AcDbAlignedDimension
 13
-48.25004031432324
 23
-47.24999983679866
 33
0.0
 14
-108.2000403143248
 24
-47.24999983714726
 34
0.0
100
AcDbRotatedDimension
  0
ENDBLK
  5
62
330
5F
100
AcDbEntity
  8
0
100
AcDbBlockEnd
  0
BLOCK
  5
64
330
63
100
AcDbEntity
  8
0
100
AcDbBlockBegin
  2
WS_PT_16-select__5
 70
     0
 10
-199.1501152443609
 20
-47.24999983714722
 30
0.0
  3
WS_PT_16-select__5
  1

  0
LINE
  5
2BC
330
63
100
AcDbEntity
  8
0
  6
Continuous
 62
     7
100
AcDbLine
 10
-199.1501152443609
 20
-47.24999983679862
 30
0.0
 11
-187.8001152443593
 21
-47.24999983688319
 31
0.0
  0
LINE
  5
2BD
330
63
100
AcDbEntity
  8
0
  6
Continuous
 62
     7
100
AcDbLine
 10
-151.3501152443593
 20
-47.24999983708122
 30
0.0
 11
-151.3834900350091
 21
-47.21662504643116
 31
0.0
  0
LINE
  5
2BE
330
63
100
AcDbEntity
  8
0
  6
Continuous
 62
     7
100
AcDbLine
 10
-151.3501152443593
 20
-47.24999983708122
 30
0.0
 11
-151.350115244333
 21
-43.72499987120196
 31
0.0
  0
LINE
  5
2BF
330
63
100
AcDbEntity
  8
0
  6
Continuous
 62
     7
100
AcDbLine
 10
-144.2096451905307
 20
-38.59999987812229
 30
0.0
 11
-144.5751152443306
 21
-38.59999987812131
 31
0.0
  0
LINE
  5
2C0
330
63
100
AcDbEntity
  8
0
  6
Continuous
 62
     7
100
AcDbLine
 10
-143.6751152443606
 20
-39.19999987812167
 30
0.0
 11
-143.7112156319291
 21
-39.19999987812327
 31
0.0
  0
LINE
  5
2C1
330
63
100
AcDbEntity
  8
0
  6
Continuous
 62
     7
100
AcDbLine
 10
-143.7112156319275
 20
-38.59999987812327
 30
0.0
 11
-143.67511524436
 21
-38.59999987812169
 31
0.0
  0
LINE
  5
2C2
330
63
100
AcDbEntity
  8
0
  6
Continuous
 62
     7
100
AcDbLine
 10
-144.2096451905323
 20
-39.19999987812229
 30
0.0
 11
-144.2096451905307
 21
-38.59999987812229
 31
0.0
  0
LINE
  5
2C3
330
63
100
AcDbEntity
  8
0
  6
Continuous
 62
     7
100
AcDbLine
 10
-144.2096451905307
 20
-38.59999987812229
 30
0.0
 11
-143.7112156319275
 21
-38.59999987812327
 31
0.0
  0
LINE
  5
2C4
330
63
100
AcDbEntity
  8
0
  6
Continuous
 62
     7
100
AcDbLine
 10
-143.7112156319275
 20
-38.59999987812327
 30
0.0
 11
-143.7112156319291
 21
-39.19999987812327
 31
0.0
  0
LINE
  5
2C5
330
63
100
AcDbEntity
  8
0
  6
Continuous
 62
     7
100
AcDbLine
 10
-143.7112156319291
 20
-39.19999987812327
 30
0.0
 11
-144.2096451905323
 21
-39.19999987812229
 31
0.0
  0
LINE
  5
2C6
330
63
100
AcDbEntity
  8
0
  6
Continuous
 62
     7
100
AcDbLine
 10
-144.5751152443343
 20
-39.96824612834853
 30
0.0
 11
-145.1751152443343
 21
-39.96824612834692
 31
0.0
  0
LINE
  5
2C7
330
63
100
AcDbEntity
  8
0
  6
Continuous
 62
     7
100
AcDbLine
 10
-144.5751152443344
 20
-39.99999987813033
 30
0.0
 11
-145.1751152443343
 21
-39.99999987812969
 31
0.0
  0
LINE
  5
2C8
330
63
100
AcDbEntity
  8
0
  6
Continuous
 62
     7
100
AcDbLine
 10
-143.67511524436
 20
-38.59999987812169
 30
0.0
 11
-143.6751152443606
 21
-39.19999987812167
 31
0.0
  0
LINE
  5
2C9
330
63
100
AcDbEntity
  8
0
  6
Continuous
 62
     7
100
AcDbLine
 10
-150.5501152443609
 20
-47.24999983706255
 30
0.0
 11
-150.5167404537106
 21
-47.21662504641306
 31
0.0
  0
LINE
  5
2CA
330
63
100
AcDbEntity
  8
0
  6
Continuous
 62
     7
100
AcDbLine
 10
-199.1501152443609
 20
-47.24999983679862
 30
0.0
 11
-199.1167404537106
 21
-47.21662504614906
 31
0.0
  0
LINE
  5
2CB
330
63
100
AcDbEntity
  8
0
  6
Continuous
 62
     7
100
AcDbLine
 10
-163.5001152443593
 20
-47.24999983701521
 30
0.0
 11
-163.500115244333
 21
-43.72499987113054
 31
0.0
  0
LINE
  5
2CC
330
63
100
AcDbEntity
  8
0
  6
Continuous
 62
     7
100
AcDbLine
 10
-162.7001152443608
 20
-47.24999983699669
 30
0.0
 11
-162.7001152443346
 21
-43.72499986791155
 31
0.0
  0
LINE
  5
2CD
330
63
100
AcDbEntity
  8
0
  6
Continuous
 62
     7
100
AcDbLine
 10
-155.825115244359
 20
-38.59999987805567
 30
0.0
 11
-155.8251152443616
 21
-39.19999987805567
 31
0.0
  0
LINE
  5
2CE
330
63
100
AcDbEntity
  8
0
  6
Continuous
 62
     7
100
AcDbLine
 10
-150.5167404536254
 20
-35.7833746891837
 30
0.0
 11
-150.5167404537106
 21
-47.21662504641306
 31
0.0
  0
LINE
  5
2CF
330
63
100
AcDbEntity
  8
0
  6
Continuous
 62
     7
100
AcDbLine
 10
-163.5334900350091
 20
-47.21662504636515
 30
0.0
 11
-163.5334900349239
 21
-35.78337468913578
 31
0.0
  0
LINE
  5
2D0
330
63
100
AcDbEntity
  8
0
  6
Continuous
 62
     7
100
AcDbLine
 10
-162.6667404536254
 20
-35.78337468911769
 30
0.0
 11
-162.6667404537106
 21
-47.21662504634706
 31
0.0
  0
LINE
  5
2D1
330
63
100
AcDbEntity
  8
0
  6
Continuous
 62
     7
100
AcDbLine
 10
-162.6667404537106
 20
-47.21662504634706
 30
0.0
 11
-151.3834900350091
 21
-47.21662504643116
 31
0.0
  0
LINE
  5
2D2
330
63
100
AcDbEntity
  8
0
  6
Continuous
 62
     7
100
AcDbLine
 10
-162.7001152443608
 20
-47.24999983699669
 30
0.0
 11
-162.6667404537106
 21
-47.21662504634706
 31
0.0
  0
LINE
  5
2D3
330
63
100
AcDbEntity
  8
0
  6
Continuous
 62
     7
100
AcDbLine
 10
-162.7001152443608
 20
-47.24999983699669
 30
0.0
 11
-151.3501152443593
 21
-47.24999983708122
 31
0.0
  0
LINE
  5
2D4
330
63
100
AcDbEntity
  8
0
  6
Continuous
 62
     7
100
AcDbLine
 10
-163.5001152443593
 20
-47.24999983701521
 30
0.0
 11
-163.5334900350091
 21
-47.21662504636515
 31
0.0
  0
LINE
  5
2D5
330
63
100
AcDbEntity
  8
0
  6
Continuous
 62
     7
100
AcDbLine
 10
-186.9667404536254
 20
-35.78337468898568
 30
0.0
 11
-187.0001152442752
 21
-35.74999987838172
 31
0.0
  0
LINE
  5
2D6
330
63
100
AcDbEntity
  8
0
  6
Continuous
 62
     7
100
AcDbLine
 10
-187.0001152442752
 20
-35.74999987838172
 30
0.0
 11
-175.6501152647136
 21
-35.74999987792387
 31
0.0
  0
LINE
  5
2D7
330
63
100
AcDbEntity
  8
0
  6
Continuous
 62
     7
100
AcDbLine
 10
-175.6501152647136
 20
-35.74999987792387
 30
0.0
 11
-175.6834900349239
 21
-35.78337468906978
 31
0.0
  0
LINE
  5
2D8
330
63
100
AcDbEntity
  8
0
  6
Continuous
 62
     7
100
AcDbLine
 10
-174.8501152238355
 20
-35.74999987796142
 30
0.0
 11
-163.5001152647693
 21
-35.74999987799004
 31
0.0
  0
LINE
  5
2D9
330
63
100
AcDbEntity
  8
0
  6
Continuous
 62
     7
100
AcDbLine
 10
-187.8001152449313
 20
-35.74999985801973
 30
0.0
 11
-187.8334900349239
 21
-35.78337468900379
 31
0.0
  0
LINE
  5
2DA
330
63
100
AcDbEntity
  8
0
  6
Continuous
 62
     7
100
AcDbLine
 10
-199.1501152442752
 20
-35.74999987831869
 30
0.0
 11
-187.8001152449313
 21
-35.74999985801973
 31
0.0
  0
LINE
  5
2DB
330
63
100
AcDbEntity
  8
0
  6
Continuous
 62
     7
100
AcDbLine
 10
-187.8334900349239
 20
-35.78337468900379
 30
0.0
 11
-199.1167404536254
 21
-35.78337468891969
 31
0.0
  0
LINE
  5
2DC
330
63
100
AcDbEntity
  8
0
  6
Continuous
 62
     7
100
AcDbLine
 10
-162.7001152238355
 20
-35.74999987791517
 30
0.0
 11
-151.3501152444951
 21
-35.74999989833013
 31
0.0
  0
LINE
  5
2DD
330
63
100
AcDbEntity
  8
0
  6
Continuous
 62
     7
100
AcDbLine
 10
-163.5001152647693
 20
-35.74999987799004
 30
0.0
 11
-163.5334900349239
 21
-35.78337468913578
 31
0.0
  0
LINE
  5
2DE
330
63
100
AcDbEntity
  8
0
  6
Continuous
 62
     7
100
AcDbLine
 10
-163.5334900349239
 20
-35.78337468913578
 30
0.0
 11
-174.8167404536254
 21
-35.78337468905169
 31
0.0
  0
LINE
  5
2DF
330
63
100
AcDbEntity
  8
0
  6
Continuous
 62
     7
100
AcDbLine
 10
-139.2334900349239
 20
-35.7833746892678
 30
0.0
 11
-150.5167404536254
 21
-35.7833746891837
 31
0.0
  0
LINE
  5
2E0
330
63
100
AcDbEntity
  8
0
  6
Continuous
 62
     7
100
AcDbLine
 10
-151.3834900349239
 20
-35.78337468920179
 30
0.0
 11
-162.6667404536254
 21
-35.78337468911769
 31
0.0
  0
LINE
  5
2E1
330
63
100
AcDbEntity
  8
0
  6
Continuous
 62
     7
100
AcDbLine
 10
-151.3501152444951
 20
-35.74999989833013
 30
0.0
 11
-151.3834900349239
 21
-35.78337468920179
 31
0.0
  0
LINE
  5
2E2
330
63
100
AcDbEntity
  8
0
  6
Continuous
 62
     7
100
AcDbLine
 10
-162.6667404536254
 20
-35.78337468911769
 30
0.0
 11
-162.7001152238355
 21
-35.74999987791517
 31
0.0
  0
LINE
  5
2E3
330
63
100
AcDbEntity
  8
0
  6
Continuous
 62
     7
100
AcDbLine
 10
-174.8167404536254
 20
-35.78337468905169
 30
0.0
 11
-174.8501152238355
 21
-35.74999987796142
 31
0.0
  0
LINE
  5
2E4
330
63
100
AcDbEntity
  8
0
  6
Continuous
 62
     7
100
AcDbLine
 10
-199.1167404536254
 20
-35.78337468891969
 30
0.0
 11
-199.1501152442752
 21
-35.74999987831869
 31
0.0
  0
LINE
  5
2E5
330
63
100
AcDbEntity
  8
0
  6
Continuous
 62
     7
100
AcDbLine
 10
-187.0001152443609
 20
-47.24999983686454
 30
0.0
 11
-175.6501152443593
 21
-47.24999983694919
 31
0.0
  0
LINE
  5
2E6
330
63
100
AcDbEntity
  8
0
  6
Continuous
 62
     7
100
AcDbLine
 10
-186.9667404537106
 20
-47.21662504621505
 30
0.0
 11
-175.6834900350091
 21
-47.21662504629914
 31
0.0
  0
LINE
  5
2E7
330
63
100
AcDbEntity
  8
0
  6
Continuous
 62
     7
100
AcDbLine
 10
-187.8001152443593
 20
-47.24999983688319
 30
0.0
 11
-187.8334900350091
 21
-47.21662504623316
 31
0.0
  0
LINE
  5
2E8
330
63
100
AcDbEntity
  8
0
  6
Continuous
 62
     7
100
AcDbLine
 10
-187.0001152443609
 20
-47.24999983686454
 30
0.0
 11
-187.0001152443346
 21
-43.72499986800252
 31
0.0
  0
LINE
  5
2E9
330
63
100
AcDbEntity
  8
0
  6
Continuous
 62
     7
100
AcDbLine
 10
-187.8001152443593
 20
-47.24999983688319
 30
0.0
 11
-187.800115244333
 21
-43.72499987122162
 31
0.0
  0
LINE
  5
2EA
330
63
100
AcDbEntity
  8
0
  6
Continuous
 62
     7
100
AcDbLine
 10
-175.6834900350091
 20
-47.21662504629914
 30
0.0
 11
-175.6834900349239
 21
-35.78337468906978
 31
0.0
  0
LINE
  5
2EB
330
63
100
AcDbEntity
  8
0
  6
Continuous
 62
     7
100
AcDbLine
 10
-175.6501152443593
 20
-47.24999983694919
 30
0.0
 11
-175.650115244333
 21
-43.72499987105913
 31
0.0
  0
LINE
  5
2EC
330
63
100
AcDbEntity
  8
0
  6
Continuous
 62
     7
100
AcDbLine
 10
-174.8501152443608
 20
-47.24999983693056
 30
0.0
 11
-174.8501152443346
 21
-43.72499986784013
 31
0.0
  0
LINE
  5
2ED
330
63
100
AcDbEntity
  8
0
  6
Continuous
 62
     7
100
AcDbLine
 10
-175.2501152443126
 20
-43.32499987103558
 30
0.0
 11
-175.2501152443131
 21
-39.67499988463489
 31
0.0
  0
LINE
  5
2EE
330
63
100
AcDbEntity
  8
0
  6
Continuous
 62
     7
100
AcDbLine
 10
-169.4751152443333
 20
-39.60346527554659
 30
0.0
 11
-168.8751152443333
 21
-39.6034652755482
 31
0.0
  0
LINE
  5
2EF
330
63
100
AcDbEntity
  8
0
  6
Continuous
 62
     7
100
AcDbLine
 10
-162.670425244819
 20
-39.24530987924999
 30
0.0
 11
-162.6704252448475
 21
-43.75468986714527
 31
0.0
  0
LINE
  5
2F0
330
63
100
AcDbEntity
  8
0
  6
Continuous
 62
     7
100
AcDbLine
 10
-155.8251152443616
 20
-39.19999987805567
 30
0.0
 11
-155.8612156319291
 21
-39.19999987805726
 31
0.0
  0
LINE
  5
2F1
330
63
100
AcDbEntity
  8
0
  6
Continuous
 62
     7
100
AcDbLine
 10
-168.8751152443344
 20
-39.99999987799832
 30
0.0
 11
-169.4751152443344
 21
-39.99999987799671
 31
0.0
  0
LINE
  5
2F2
330
63
100
AcDbEntity
  8
0
  6
Continuous
 62
     7
100
AcDbLine
 10
-174.8167404537106
 20
-47.21662504628106
 30
0.0
 11
-163.5334900350091
 21
-47.21662504636515
 31
0.0
  0
LINE
  5
2F3
330
63
100
AcDbEntity
  8
0
  6
Continuous
 62
     7
100
AcDbLine
 10
-174.8204252448189
 20
-39.24530987917841
 30
0.0
 11
-174.8204252448474
 21
-43.75468986707401
 31
0.0
  0
LINE
  5
2F4
330
63
100
AcDbEntity
  8
0
  6
Continuous
 62
     7
100
AcDbLine
 10
-174.8501152443346
 20
-43.72499986784013
 30
0.0
 11
-174.8204252448474
 21
-43.75468986707401
 31
0.0
  0
LINE
  5
2F5
330
63
100
AcDbEntity
  8
0
  6
Continuous
 62
     7
100
AcDbLine
 10
-175.6798052426489
 20
-43.75468986935852
 30
0.0
 11
-175.6798052426055
 21
-39.24530988632913
 31
0.0
  0
LINE
  5
2F6
330
63
100
AcDbEntity
  8
0
  6
Continuous
 62
     7
100
AcDbLine
 10
-175.650115244333
 20
-43.72499987105913
 30
0.0
 11
-175.2501152443126
 21
-43.32499987103558
 31
0.0
  0
LINE
  5
2F7
330
63
100
AcDbEntity
  8
0
  6
Continuous
 62
     7
100
AcDbLine
 10
-175.2501152443126
 20
-43.32499987103558
 30
0.0
 11
-174.8501152443346
 21
-43.72499986784013
 31
0.0
  0
LINE
  5
2F8
330
63
100
AcDbEntity
  8
0
  6
Continuous
 62
     7
100
AcDbLine
 10
-174.8501152443608
 20
-47.24999983693056
 30
0.0
 11
-174.8167404537106
 21
-47.21662504628106
 31
0.0
  0
LINE
  5
2F9
330
63
100
AcDbEntity
  8
0
  6
Continuous
 62
     7
100
AcDbLine
 10
-174.8501152443608
 20
-47.24999983693056
 30
0.0
 11
-163.5001152443593
 21
-47.24999983701521
 31
0.0
  0
LINE
  5
2FA
330
63
100
AcDbEntity
  8
0
  6
Continuous
 62
     7
100
AcDbLine
 10
-175.6501152443593
 20
-47.24999983694919
 30
0.0
 11
-175.6834900350091
 21
-47.21662504629914
 31
0.0
  0
LINE
  5
2FB
330
63
100
AcDbEntity
  8
0
  6
Continuous
 62
     7
100
AcDbLine
 10
-187.0001152443609
 20
-47.24999983686454
 30
0.0
 11
-186.9667404537106
 21
-47.21662504621505
 31
0.0
  0
LINE
  5
2FC
330
63
100
AcDbEntity
  8
0
  6
Continuous
 62
     7
100
AcDbLine
 10
-139.2001152443278
 20
-35.74999987812188
 30
0.0
 11
-139.2334900349239
 21
-35.7833746892678
 31
0.0
  0
LINE
  5
2FD
330
63
100
AcDbEntity
  8
0
  6
Continuous
 62
     7
100
AcDbLine
 10
-139.2334900350091
 20
-47.21662504649715
 30
0.0
 11
-139.2334900349239
 21
-35.7833746892678
 31
0.0
  0
LINE
  5
2FE
330
63
100
AcDbEntity
  8
0
  6
Continuous
 62
     7
100
AcDbLine
 10
-139.2001152443593
 20
-47.24999983714722
 30
0.0
 11
-139.2334900350091
 21
-47.21662504649715
 31
0.0
  0
LINE
  5
2FF
330
63
100
AcDbEntity
  8
0
  6
Continuous
 62
     7
100
AcDbLine
 10
-139.2001152443593
 20
-47.24999983714722
 30
0.0
 11
-139.2001152443278
 21
-35.74999987812188
 31
0.0
  0
LINE
  5
300
330
63
100
AcDbEntity
  8
0
  6
Continuous
 62
     7
100
AcDbLine
 10
-193.7751152443286
 20
-37.8317536276274
 30
0.0
 11
-193.7751152443285
 21
-37.79999987784156
 31
0.0
  0
LINE
  5
301
330
63
100
AcDbEntity
  8
0
  6
Continuous
 62
     7
100
AcDbLine
 10
-193.1751152443285
 20
-37.79999987784316
 30
0.0
 11
-193.1751152443286
 21
-37.83175362762901
 31
0.0
  0
LINE
  5
302
330
63
100
AcDbEntity
  8
0
  6
Continuous
 62
     7
100
AcDbLine
 10
-186.9667404536254
 20
-35.78337468898568
 30
0.0
 11
-186.9667404537106
 21
-47.21662504621505
 31
0.0
  0
LINE
  5
303
330
63
100
AcDbEntity
  8
0
  6
Continuous
 62
     7
100
AcDbLine
 10
-175.6834900349239
 20
-35.78337468906978
 30
0.0
 11
-186.9667404536254
 21
-35.78337468898568
 31
0.0
  0
LINE
  5
304
330
63
100
AcDbEntity
  8
0
  6
Continuous
 62
     7
100
AcDbLine
 10
-199.1167404536254
 20
-35.78337468891969
 30
0.0
 11
-199.1167404537106
 21
-47.21662504614906
 31
0.0
  0
LINE
  5
305
330
63
100
AcDbEntity
  8
0
  6
Continuous
 62
     7
100
AcDbLine
 10
-199.1167404537106
 20
-47.21662504614906
 30
0.0
 11
-187.8334900350091
 21
-47.21662504623316
 31
0.0
  0
LINE
  5
306
330
63
100
AcDbEntity
  8
0
  6
Continuous
 62
     7
100
AcDbLine
 10
-186.9704252448132
 20
-39.24530987933525
 30
0.0
 11
-186.9704252448417
 21
-43.7546898672421
 31
0.0
  0
LINE
  5
307
330
63
100
AcDbEntity
  8
0
  6
Continuous
 62
     7
100
AcDbLine
 10
-186.9704252448132
 20
-39.24530987933525
 30
0.0
 11
-187.0001152443014
 21
-39.27499987925118
 31
0.0
  0
LINE
  5
308
330
63
100
AcDbEntity
  8
0
  6
Continuous
 62
     7
100
AcDbLine
 10
-187.0001152443346
 20
-43.72499986800252
 30
0.0
 11
-186.9704252448417
 21
-43.7546898672421
 31
0.0
  0
LINE
  5
309
330
63
100
AcDbEntity
  8
0
  6
Continuous
 62
     7
100
AcDbLine
 10
-187.4001152443131
 20
-43.32499987119756
 30
0.0
 11
-187.0001152443346
 21
-43.72499986800252
 31
0.0
  0
LINE
  5
30A
330
63
100
AcDbEntity
  8
0
  6
Continuous
 62
     7
100
AcDbLine
 10
-187.8298052426546
 20
-43.75468986952667
 30
0.0
 11
-187.8298052426111
 21
-39.24530988648584
 31
0.0
  0
LINE
  5
30B
330
63
100
AcDbEntity
  8
0
  6
Continuous
 62
     7
100
AcDbLine
 10
-187.8001152442999
 20
-39.27499988481461
 30
0.0
 11
-187.8298052426111
 21
-39.24530988648584
 31
0.0
  0
LINE
  5
30C
330
63
100
AcDbEntity
  8
0
  6
Continuous
 62
     7
100
AcDbLine
 10
-180.6596451905307
 20
-38.59999987792428
 30
0.0
 11
-180.1612156319275
 21
-38.59999987792525
 31
0.0
  0
LINE
  5
30D
330
63
100
AcDbEntity
  8
0
  6
Continuous
 62
     7
100
AcDbLine
 10
-180.1612156319291
 20
-39.19999987792527
 30
0.0
 11
-180.6596451905323
 21
-39.19999987792428
 31
0.0
  0
LINE
  5
30E
330
63
100
AcDbEntity
  8
0
  6
Continuous
 62
     7
100
AcDbLine
 10
-187.8298052426546
 20
-43.75468986952667
 30
0.0
 11
-187.800115244333
 21
-43.72499987122162
 31
0.0
  0
LINE
  5
30F
330
63
100
AcDbEntity
  8
0
  6
Continuous
 62
     7
100
AcDbLine
 10
-187.4001152443131
 20
-43.32499987119756
 30
0.0
 11
-187.4001152443128
 21
-39.67499988479757
 31
0.0
  0
LINE
  5
310
330
63
100
AcDbEntity
  8
0
  6
Continuous
 62
     7
100
AcDbLine
 10
-187.4001152443128
 20
-39.67499988479757
 30
0.0
 11
-187.8001152442999
 21
-39.27499988481461
 31
0.0
  0
LINE
  5
311
330
63
100
AcDbEntity
  8
0
  6
Continuous
 62
     7
100
AcDbLine
 10
-175.6798052426489
 20
-43.75468986935852
 30
0.0
 11
-175.650115244333
 21
-43.72499987105913
 31
0.0
  0
LINE
  5
312
330
63
100
AcDbEntity
  8
0
  6
Continuous
 62
     7
100
AcDbLine
 10
-175.2501152443131
 20
-39.67499988463489
 30
0.0
 11
-175.6501152442999
 21
-39.27499988465221
 31
0.0
  0
LINE
  5
313
330
63
100
AcDbEntity
  8
0
  6
Continuous
 62
     7
100
AcDbLine
 10
-181.0251152443333
 20
-39.60346527548218
 30
0.0
 11
-181.0251152443343
 21
-39.9682461281505
 31
0.0
  0
LINE
  5
314
330
63
100
AcDbEntity
  8
0
  6
Continuous
 62
     7
100
AcDbLine
 10
-181.6251152443343
 20
-39.96824612814891
 30
0.0
 11
-181.6251152443333
 21
-39.6034652754806
 31
0.0
  0
LINE
  5
315
330
63
100
AcDbEntity
  8
0
  6
Continuous
 62
     7
100
AcDbLine
 10
-187.8334900350091
 20
-47.21662504623316
 30
0.0
 11
-187.8334900349239
 21
-35.78337468900379
 31
0.0
  0
LINE
  5
316
330
63
100
AcDbEntity
  8
0
  6
Continuous
 62
     7
100
AcDbLine
 10
-169.8405852981322
 20
-39.19999987798672
 30
0.0
 11
-169.4751152443322
 21
-39.19999987798772
 31
0.0
  0
LINE
  5
317
330
63
100
AcDbEntity
  8
0
  6
Continuous
 62
     7
100
AcDbLine
 10
-169.4751152443296
 20
-38.19653448042597
 30
0.0
 11
-169.4751152443286
 21
-37.83175362775943
 31
0.0
  0
LINE
  5
318
330
63
100
AcDbEntity
  8
0
  6
Continuous
 62
     7
100
AcDbLine
 10
-169.4751152443286
 20
-37.83175362775943
 30
0.0
 11
-169.4751152443285
 21
-37.79999987797357
 31
0.0
  0
LINE
  5
319
330
63
100
AcDbEntity
  8
0
  6
Continuous
 62
     7
100
AcDbLine
 10
-169.4751152443333
 20
-39.60346527554659
 30
0.0
 11
-169.4751152443322
 21
-39.19999987798772
 31
0.0
  0
LINE
  5
31A
330
63
100
AcDbEntity
  8
0
  6
Continuous
 62
     7
100
AcDbLine
 10
-169.4751152443344
 20
-39.99999987799671
 30
0.0
 11
-169.4751152443343
 21
-39.96824612821492
 31
0.0
  0
LINE
  5
31B
330
63
100
AcDbEntity
  8
0
  6
Continuous
 62
     7
100
AcDbLine
 10
-169.4751152443286
 20
-37.83175362775943
 30
0.0
 11
-168.8751152443286
 21
-37.83175362776102
 31
0.0
  0
LINE
  5
31C
330
63
100
AcDbEntity
  8
0
  6
Continuous
 62
     7
100
AcDbLine
 10
-168.8751152443285
 20
-37.79999987797518
 30
0.0
 11
-168.8751152443286
 21
-37.83175362776102
 31
0.0
  0
LINE
  5
31D
330
63
100
AcDbEntity
  8
0
  6
Continuous
 62
     7
100
AcDbLine
 10
-170.3390148567353
 20
-39.19999987798505
 30
0.0
 11
-170.3751152443038
 21
-39.19999987798326
 31
0.0
  0
LINE
  5
31E
330
63
100
AcDbEntity
  8
0
  6
Continuous
 62
     7
100
AcDbLine
 10
-169.8405852981322
 20
-39.19999987798672
 30
0.0
 11
-170.3390148567353
 21
-39.19999987798505
 31
0.0
  0
LINE
  5
31F
330
63
100
AcDbEntity
  8
0
  6
Continuous
 62
     7
100
AcDbLine
 10
-170.3390148567353
 20
-39.19999987798505
 30
0.0
 11
-170.3390148567337
 21
-38.59999987798506
 31
0.0
  0
LINE
  5
320
330
63
100
AcDbEntity
  8
0
  6
Continuous
 62
     7
100
AcDbLine
 10
-169.8405852981306
 20
-38.59999987798673
 30
0.0
 11
-169.8405852981322
 21
-39.19999987798672
 31
0.0
  0
LINE
  5
321
330
63
100
AcDbEntity
  8
0
  6
Continuous
 62
     7
100
AcDbLine
 10
-174.8167404536254
 20
-35.78337468905169
 30
0.0
 11
-174.8167404537106
 21
-47.21662504628106
 31
0.0
  0
LINE
  5
322
330
63
100
AcDbEntity
  8
0
  6
Continuous
 62
     7
100
AcDbLine
 10
-168.8751152443296
 20
-38.19653448042757
 30
0.0
 11
-168.8751152443306
 21
-38.59999987798931
 31
0.0
  0
LINE
  5
323
330
63
100
AcDbEntity
  8
0
  6
Continuous
 62
     7
100
AcDbLine
 10
-156.7251152443295
 20
-38.19653448049358
 30
0.0
 11
-156.7251152443306
 21
-38.59999987805531
 31
0.0
  0
LINE
  5
324
330
63
100
AcDbEntity
  8
0
  6
Continuous
 62
     7
100
AcDbLine
 10
-169.4751152443296
 20
-38.19653448042597
 30
0.0
 11
-169.4751152443306
 21
-38.5999998779877
 31
0.0
  0
LINE
  5
325
330
63
100
AcDbEntity
  8
0
  6
Continuous
 62
     7
100
AcDbLine
 10
-157.3251152443296
 20
-38.19653448049197
 30
0.0
 11
-157.3251152443306
 21
-38.59999987805372
 31
0.0
  0
LINE
  5
326
330
63
100
AcDbEntity
  8
0
  6
Continuous
 62
     7
100
AcDbLine
 10
-167.9751152443606
 20
-39.19999987798968
 30
0.0
 11
-168.0112156319291
 21
-39.19999987799126
 31
0.0
  0
LINE
  5
327
330
63
100
AcDbEntity
  8
0
  6
Continuous
 62
     7
100
AcDbLine
 10
-157.6905852981322
 20
-39.19999987805273
 30
0.0
 11
-157.3251152443322
 21
-39.19999987805371
 31
0.0
  0
LINE
  5
328
330
63
100
AcDbEntity
  8
0
  6
Continuous
 62
     7
100
AcDbLine
 10
-168.8751152443333
 20
-39.6034652755482
 30
0.0
 11
-168.8751152443322
 21
-39.1999998779893
 31
0.0
  0
LINE
  5
329
330
63
100
AcDbEntity
  8
0
  6
Continuous
 62
     7
100
AcDbLine
 10
-157.3251152443333
 20
-39.60346527561259
 30
0.0
 11
-157.3251152443322
 21
-39.19999987805371
 31
0.0
  0
LINE
  5
32A
330
63
100
AcDbEntity
  8
0
  6
Continuous
 62
     7
100
AcDbLine
 10
-156.7251152443333
 20
-39.60346527561419
 30
0.0
 11
-156.7251152443322
 21
-39.19999987805532
 31
0.0
  0
LINE
  5
32B
330
63
100
AcDbEntity
  8
0
  6
Continuous
 62
     7
100
AcDbLine
 10
-156.7251152443285
 20
-37.79999987804215
 30
0.0
 11
-156.7251152443286
 21
-37.83175362782702
 31
0.0
  0
LINE
  5
32C
330
63
100
AcDbEntity
  8
0
  6
Continuous
 62
     7
100
AcDbLine
 10
-157.3251152443286
 20
-37.83175362782542
 30
0.0
 11
-157.3251152443285
 21
-37.79999987803957
 31
0.0
  0
LINE
  5
32D
330
63
100
AcDbEntity
  8
0
  6
Continuous
 62
     7
100
AcDbLine
 10
-168.8751152443296
 20
-38.19653448042757
 30
0.0
 11
-169.4751152443296
 21
-38.19653448042597
 31
0.0
  0
LINE
  5
32E
330
63
100
AcDbEntity
  8
0
  6
Continuous
 62
     7
100
AcDbLine
 10
-168.8751152443286
 20
-37.83175362776102
 30
0.0
 11
-168.8751152443296
 21
-38.19653448042757
 31
0.0
  0
LINE
  5
32F
330
63
100
AcDbEntity
  8
0
  6
Continuous
 62
     7
100
AcDbLine
 10
-162.7001152443346
 20
-43.72499986791155
 30
0.0
 11
-162.6704252448475
 21
-43.75468986714527
 31
0.0
  0
LINE
  5
330
330
63
100
AcDbEntity
  8
0
  6
Continuous
 62
     7
100
AcDbLine
 10
-163.5298052426488
 20
-43.75468986942974
 30
0.0
 11
-163.5298052426053
 21
-39.24530988640071
 31
0.0
  0
LINE
  5
331
330
63
100
AcDbEntity
  8
0
  6
Continuous
 62
     7
100
AcDbLine
 10
-163.1001152443128
 20
-43.32499987110683
 30
0.0
 11
-163.1001152443138
 21
-39.67499988470741
 31
0.0
  0
LINE
  5
332
330
63
100
AcDbEntity
  8
0
  6
Continuous
 62
     7
100
AcDbLine
 10
-163.1001152443128
 20
-43.32499987110683
 30
0.0
 11
-162.7001152443346
 21
-43.72499986791155
 31
0.0
  0
LINE
  5
333
330
63
100
AcDbEntity
  8
0
  6
Continuous
 62
     7
100
AcDbLine
 10
-163.5298052426488
 20
-43.75468986942974
 30
0.0
 11
-163.500115244333
 21
-43.72499987113054
 31
0.0
  0
LINE
  5
334
330
63
100
AcDbEntity
  8
0
  6
Continuous
 62
     7
100
AcDbLine
 10
-156.7251152443343
 20
-39.96824612828252
 30
0.0
 11
-156.7251152443344
 21
-39.9999998780653
 31
0.0
  0
LINE
  5
335
330
63
100
AcDbEntity
  8
0
  6
Continuous
 62
     7
100
AcDbLine
 10
-156.7251152443333
 20
-39.60346527561419
 30
0.0
 11
-156.7251152443343
 21
-39.96824612828252
 31
0.0
  0
LINE
  5
336
330
63
100
AcDbEntity
  8
0
  6
Continuous
 62
     7
100
AcDbLine
 10
-157.3251152443333
 20
-39.60346527561259
 30
0.0
 11
-156.7251152443333
 21
-39.60346527561419
 31
0.0
  0
LINE
  5
337
330
63
100
AcDbEntity
  8
0
  6
Continuous
 62
     7
100
AcDbLine
 10
-156.7251152443343
 20
-39.96824612828252
 30
0.0
 11
-157.3251152443343
 21
-39.96824612828091
 31
0.0
  0
LINE
  5
338
330
63
100
AcDbEntity
  8
0
  6
Continuous
 62
     7
100
AcDbLine
 10
-157.3251152443343
 20
-39.99999987806369
 30
0.0
 11
-157.3251152443343
 21
-39.96824612828091
 31
0.0
  0
LINE
  5
339
330
63
100
AcDbEntity
  8
0
  6
Continuous
 62
     7
100
AcDbLine
 10
-157.3251152443343
 20
-39.96824612828091
 30
0.0
 11
-157.3251152443333
 21
-39.60346527561259
 31
0.0
  0
LINE
  5
33A
330
63
100
AcDbEntity
  8
0
  6
Continuous
 62
     7
100
AcDbLine
 10
-168.0112156319291
 20
-39.19999987799126
 30
0.0
 11
-168.5096451905323
 21
-39.19999987799028
 31
0.0
  0
LINE
  5
33B
330
63
100
AcDbEntity
  8
0
  6
Continuous
 62
     7
100
AcDbLine
 10
-156.7251152443344
 20
-39.9999998780653
 30
0.0
 11
-157.3251152443343
 21
-39.99999987806369
 31
0.0
  0
LINE
  5
33C
330
63
100
AcDbEntity
  8
0
  6
Continuous
 62
     7
100
AcDbLine
 10
-168.0112156319275
 20
-38.59999987799127
 30
0.0
 11
-168.0112156319291
 21
-39.19999987799126
 31
0.0
  0
LINE
  5
33D
330
63
100
AcDbEntity
  8
0
  6
Continuous
 62
     7
100
AcDbLine
 10
-169.8405852981306
 20
-38.59999987798673
 30
0.0
 11
-169.4751152443306
 21
-38.5999998779877
 31
0.0
  0
LINE
  5
33E
330
63
100
AcDbEntity
  8
0
  6
Continuous
 62
     7
100
AcDbLine
 10
-170.3390148567337
 20
-38.59999987798506
 30
0.0
 11
-169.8405852981306
 21
-38.59999987798673
 31
0.0
  0
LINE
  5
33F
330
63
100
AcDbEntity
  8
0
  6
Continuous
 62
     7
100
AcDbLine
 10
-170.3751152443012
 20
-38.59999987798327
 30
0.0
 11
-170.3390148567337
 21
-38.59999987798506
 31
0.0
  0
LINE
  5
340
330
63
100
AcDbEntity
  8
0
  6
Continuous
 62
     7
100
AcDbLine
 10
-157.6905852981306
 20
-38.59999987805274
 30
0.0
 11
-157.3251152443306
 21
-38.59999987805372
 31
0.0
  0
LINE
  5
341
330
63
100
AcDbEntity
  8
0
  6
Continuous
 62
     7
100
AcDbLine
 10
-156.3596451905307
 20
-38.5999998780563
 30
0.0
 11
-156.7251152443306
 21
-38.59999987805531
 31
0.0
  0
LINE
  5
342
330
63
100
AcDbEntity
  8
0
  6
Continuous
 62
     7
100
AcDbLine
 10
-156.3596451905323
 20
-39.19999987805629
 30
0.0
 11
-156.7251152443322
 21
-39.19999987805532
 31
0.0
  0
LINE
  5
343
330
63
100
AcDbEntity
  8
0
  6
Continuous
 62
     7
100
AcDbLine
 10
-168.0112156319275
 20
-38.59999987799127
 30
0.0
 11
-167.97511524436
 21
-38.59999987798967
 31
0.0
  0
LINE
  5
344
330
63
100
AcDbEntity
  8
0
  6
Continuous
 62
     7
100
AcDbLine
 10
-168.5096451905307
 20
-38.59999987799029
 30
0.0
 11
-168.8751152443306
 21
-38.59999987798931
 31
0.0
  0
LINE
  5
345
330
63
100
AcDbEntity
  8
0
  6
Continuous
 62
     7
100
AcDbLine
 10
-168.5096451905323
 20
-39.19999987799028
 30
0.0
 11
-168.8751152443322
 21
-39.1999998779893
 31
0.0
  0
LINE
  5
346
330
63
100
AcDbEntity
  8
0
  6
Continuous
 62
     7
100
AcDbLine
 10
-170.3751152443038
 20
-39.19999987798326
 30
0.0
 11
-170.3751152443012
 21
-38.59999987798327
 31
0.0
  0
LINE
  5
347
330
63
100
AcDbEntity
  8
0
  6
Continuous
 62
     7
100
AcDbLine
 10
-168.5096451905307
 20
-38.59999987799029
 30
0.0
 11
-168.0112156319275
 21
-38.59999987799127
 31
0.0
  0
LINE
  5
348
330
63
100
AcDbEntity
  8
0
  6
Continuous
 62
     7
100
AcDbLine
 10
-155.8612156319275
 20
-38.59999987805726
 30
0.0
 11
-155.8612156319291
 21
-39.19999987805726
 31
0.0
  0
LINE
  5
349
330
63
100
AcDbEntity
  8
0
  6
Continuous
 62
     7
100
AcDbLine
 10
-168.5096451905323
 20
-39.19999987799028
 30
0.0
 11
-168.5096451905307
 21
-38.59999987799029
 31
0.0
  0
LINE
  5
34A
330
63
100
AcDbEntity
  8
0
  6
Continuous
 62
     7
100
AcDbLine
 10
-167.97511524436
 20
-38.59999987798967
 30
0.0
 11
-167.9751152443606
 21
-39.19999987798968
 31
0.0
  0
LINE
  5
34B
330
63
100
AcDbEntity
  8
0
  6
Continuous
 62
     7
100
AcDbLine
 10
-163.500115244333
 20
-43.72499987113054
 30
0.0
 11
-163.1001152443128
 21
-43.32499987110683
 31
0.0
  0
LINE
  5
34C
330
63
100
AcDbEntity
  8
0
  6
Continuous
 62
     7
100
AcDbLine
 10
-187.800115244333
 20
-43.72499987122162
 30
0.0
 11
-187.4001152443131
 21
-43.32499987119756
 31
0.0
  0
LINE
  5
34D
330
63
100
AcDbEntity
  8
0
  6
Continuous
 62
     7
100
AcDbLine
 10
-174.8501152443014
 20
-39.27499987908868
 30
0.0
 11
-175.2501152443131
 21
-39.67499988463489
 31
0.0
  0
LINE
  5
34E
330
63
100
AcDbEntity
  8
0
  6
Continuous
 62
     7
100
AcDbLine
 10
-199.1501152443609
 20
-47.24999983679862
 30
0.0
 11
-199.1501152442752
 21
-35.74999987831869
 31
0.0
  0
LINE
  5
34F
330
63
100
AcDbEntity
  8
0
  6
Continuous
 62
     7
100
AcDbLine
 10
-181.6251152443285
 20
-37.79999987790854
 30
0.0
 11
-181.0251152443285
 21
-37.79999987791014
 31
0.0
  0
LINE
  5
350
330
63
100
AcDbEntity
  8
0
  6
Continuous
 62
     7
100
AcDbLine
 10
-181.0251152443285
 20
-37.79999987791014
 30
0.0
 11
-181.0251152443286
 21
-37.83175362769502
 31
0.0
  0
LINE
  5
351
330
63
100
AcDbEntity
  8
0
  6
Continuous
 62
     7
100
AcDbLine
 10
-194.6390148567353
 20
-39.19999987785305
 30
0.0
 11
-194.6751152443038
 21
-39.19999987785126
 31
0.0
  0
LINE
  5
352
330
63
100
AcDbEntity
  8
0
  6
Continuous
 62
     7
100
AcDbLine
 10
-194.6751152443022
 20
-38.59999987785126
 30
0.0
 11
-194.6390148567338
 21
-38.59999987785303
 31
0.0
  0
LINE
  5
353
330
63
100
AcDbEntity
  8
0
  6
Continuous
 62
     7
100
AcDbLine
 10
-194.6751152443038
 20
-39.19999987785126
 30
0.0
 11
-194.6751152443022
 21
-38.59999987785126
 31
0.0
  0
LINE
  5
354
330
63
100
AcDbEntity
  8
0
  6
Continuous
 62
     7
100
AcDbLine
 10
-181.6251152443344
 20
-39.99999987793169
 30
0.0
 11
-181.6251152443343
 21
-39.96824612814891
 31
0.0
  0
LINE
  5
355
330
63
100
AcDbEntity
  8
0
  6
Continuous
 62
     7
100
AcDbLine
 10
-168.8751152443343
 20
-39.9682461282165
 30
0.0
 11
-168.8751152443344
 21
-39.99999987799832
 31
0.0
  0
LINE
  5
356
330
63
100
AcDbEntity
  8
0
  6
Continuous
 62
     7
100
AcDbLine
 10
-193.1751152443344
 20
-39.99999987786728
 30
0.0
 11
-193.7751152443344
 21
-39.99999987786568
 31
0.0
  0
LINE
  5
357
330
63
100
AcDbEntity
  8
0
  6
Continuous
 62
     7
100
AcDbLine
 10
-181.0251152443343
 20
-39.9682461281505
 30
0.0
 11
-181.0251152443344
 21
-39.99999987793328
 31
0.0
  0
LINE
  5
358
330
63
100
AcDbEntity
  8
0
  6
Continuous
 62
     7
100
AcDbLine
 10
-193.7751152443344
 20
-39.99999987786568
 30
0.0
 11
-193.7751152443343
 21
-39.9682461280829
 31
0.0
  0
LINE
  5
359
330
63
100
AcDbEntity
  8
0
  6
Continuous
 62
     7
100
AcDbLine
 10
-168.8751152443333
 20
-39.6034652755482
 30
0.0
 11
-168.8751152443343
 21
-39.9682461282165
 31
0.0
  0
LINE
  5
35A
330
63
100
AcDbEntity
  8
0
  6
Continuous
 62
     7
100
AcDbLine
 10
-163.5001152442999
 20
-39.27499988472363
 30
0.0
 11
-163.5298052426053
 21
-39.24530988640071
 31
0.0
  0
LINE
  5
35B
330
63
100
AcDbEntity
  8
0
  6
Continuous
 62
     7
100
AcDbLine
 10
-163.1001152443138
 20
-39.67499988470741
 30
0.0
 11
-163.5001152442999
 21
-39.27499988472363
 31
0.0
  0
LINE
  5
35C
330
63
100
AcDbEntity
  8
0
  6
Continuous
 62
     7
100
AcDbLine
 10
-169.4751152443343
 20
-39.96824612821492
 30
0.0
 11
-169.4751152443333
 21
-39.60346527554659
 31
0.0
  0
LINE
  5
35D
330
63
100
AcDbEntity
  8
0
  6
Continuous
 62
     7
100
AcDbLine
 10
-193.7751152443333
 20
-39.60346527541459
 30
0.0
 11
-193.1751152443333
 21
-39.60346527541619
 31
0.0
  0
LINE
  5
35E
330
63
100
AcDbEntity
  8
0
  6
Continuous
 62
     7
100
AcDbLine
 10
-193.1751152443333
 20
-39.60346527541619
 30
0.0
 11
-193.1751152443322
 21
-39.1999998778573
 31
0.0
  0
LINE
  5
35F
330
63
100
AcDbEntity
  8
0
  6
Continuous
 62
     7
100
AcDbLine
 10
-181.6251152443333
 20
-39.6034652754806
 30
0.0
 11
-181.6251152443322
 21
-39.19999987792171
 31
0.0
  0
LINE
  5
360
330
63
100
AcDbEntity
  8
0
  6
Continuous
 62
     7
100
AcDbLine
 10
-181.0251152443333
 20
-39.60346527548218
 30
0.0
 11
-181.0251152443322
 21
-39.1999998779233
 31
0.0
  0
LINE
  5
361
330
63
100
AcDbEntity
  8
0
  6
Continuous
 62
     7
100
AcDbLine
 10
-193.1751152443343
 20
-39.9682461280845
 30
0.0
 11
-193.1751152443344
 21
-39.99999987786728
 31
0.0
  0
LINE
  5
362
330
63
100
AcDbEntity
  8
0
  6
Continuous
 62
     7
100
AcDbLine
 10
-193.1751152443333
 20
-39.60346527541619
 30
0.0
 11
-193.1751152443343
 21
-39.9682461280845
 31
0.0
  0
LINE
  5
363
330
63
100
AcDbEntity
  8
0
  6
Continuous
 62
     7
100
AcDbLine
 10
-181.0251152443343
 20
-39.9682461281505
 30
0.0
 11
-181.6251152443343
 21
-39.96824612814891
 31
0.0
  0
LINE
  5
364
330
63
100
AcDbEntity
  8
0
  6
Continuous
 62
     7
100
AcDbLine
 10
-193.1751152443343
 20
-39.9682461280845
 30
0.0
 11
-193.7751152443343
 21
-39.9682461280829
 31
0.0
  0
LINE
  5
365
330
63
100
AcDbEntity
  8
0
  6
Continuous
 62
     7
100
AcDbLine
 10
-168.8751152443343
 20
-39.9682461282165
 30
0.0
 11
-169.4751152443343
 21
-39.96824612821492
 31
0.0
  0
LINE
  5
366
330
63
100
AcDbEntity
  8
0
  6
Continuous
 62
     7
100
AcDbLine
 10
-151.3501152442998
 20
-39.27499988479502
 30
0.0
 11
-151.3798052426051
 21
-39.24530988647225
 31
0.0
  0
LINE
  5
367
330
63
100
AcDbEntity
  8
0
  6
Continuous
 62
     7
100
AcDbLine
 10
-150.9501152443187
 20
-39.67499988478371
 30
0.0
 11
-151.3501152442998
 21
-39.27499988479502
 31
0.0
  0
LINE
  5
368
330
63
100
AcDbEntity
  8
0
  6
Continuous
 62
     7
100
AcDbLine
 10
-157.6905852981322
 20
-39.19999987805273
 30
0.0
 11
-158.1890148567354
 21
-39.19999987805105
 31
0.0
  0
LINE
  5
369
330
63
100
AcDbEntity
  8
0
  6
Continuous
 62
     7
100
AcDbLine
 10
-182.4890148567353
 20
-39.19999987791904
 30
0.0
 11
-182.5251152443038
 21
-39.19999987791726
 31
0.0
  0
LINE
  5
36A
330
63
100
AcDbEntity
  8
0
  6
Continuous
 62
     7
100
AcDbLine
 10
-158.1890148567354
 20
-39.19999987805105
 30
0.0
 11
-158.2251152443038
 21
-39.19999987804928
 31
0.0
  0
LINE
  5
36B
330
63
100
AcDbEntity
  8
0
  6
Continuous
 62
     7
100
AcDbLine
 10
-181.9905852981322
 20
-39.19999987792073
 30
0.0
 11
-182.4890148567353
 21
-39.19999987791904
 31
0.0
  0
LINE
  5
36C
330
63
100
AcDbEntity
  8
0
  6
Continuous
 62
     7
100
AcDbLine
 10
-162.670425244819
 20
-39.24530987924999
 30
0.0
 11
-162.7001152443014
 21
-39.27499987916009
 31
0.0
  0
LINE
  5
36D
330
63
100
AcDbEntity
  8
0
  6
Continuous
 62
     7
100
AcDbLine
 10
-174.8204252448189
 20
-39.24530987917841
 30
0.0
 11
-174.8501152443014
 21
-39.27499987908868
 31
0.0
  0
LINE
  5
36E
330
63
100
AcDbEntity
  8
0
  6
Continuous
 62
     7
100
AcDbLine
 10
-193.7751152443333
 20
-39.60346527541459
 30
0.0
 11
-193.7751152443322
 21
-39.1999998778557
 31
0.0
  0
LINE
  5
36F
330
63
100
AcDbEntity
  8
0
  6
Continuous
 62
     7
100
AcDbLine
 10
-193.7751152443343
 20
-39.9682461280829
 30
0.0
 11
-193.7751152443333
 21
-39.60346527541459
 31
0.0
  0
LINE
  5
370
330
63
100
AcDbEntity
  8
0
  6
Continuous
 62
     7
100
AcDbLine
 10
-194.1405852981322
 20
-39.19999987785472
 30
0.0
 11
-194.6390148567353
 21
-39.19999987785305
 31
0.0
  0
LINE
  5
371
330
63
100
AcDbEntity
  8
0
  6
Continuous
 62
     7
100
AcDbLine
 10
-192.3112156319291
 20
-39.19999987785926
 30
0.0
 11
-192.8096451905323
 21
-39.19999987785828
 31
0.0
  0
LINE
  5
372
330
63
100
AcDbEntity
  8
0
  6
Continuous
 62
     7
100
AcDbLine
 10
-192.2751152443616
 20
-39.19999987785766
 30
0.0
 11
-192.3112156319291
 21
-39.19999987785926
 31
0.0
  0
LINE
  5
373
330
63
100
AcDbEntity
  8
0
  6
Continuous
 62
     7
100
AcDbLine
 10
-181.9905852981306
 20
-38.59999987792072
 30
0.0
 11
-181.9905852981322
 21
-39.19999987792073
 31
0.0
  0
LINE
  5
374
330
63
100
AcDbEntity
  8
0
  6
Continuous
 62
     7
100
AcDbLine
 10
-182.4890148567353
 20
-39.19999987791904
 30
0.0
 11
-182.4890148567338
 21
-38.59999987791904
 31
0.0
  0
LINE
  5
375
330
63
100
AcDbEntity
  8
0
  6
Continuous
 62
     7
100
AcDbLine
 10
-155.8612156319291
 20
-39.19999987805726
 30
0.0
 11
-156.3596451905323
 21
-39.19999987805629
 31
0.0
  0
LINE
  5
376
330
63
100
AcDbEntity
  8
0
  6
Continuous
 62
     7
100
AcDbLine
 10
-158.2251152443038
 20
-39.19999987804928
 30
0.0
 11
-158.2251152443022
 21
-38.59999987804928
 31
0.0
  0
LINE
  5
377
330
63
100
AcDbEntity
  8
0
  6
Continuous
 62
     7
100
AcDbLine
 10
-157.6905852981306
 20
-38.59999987805274
 30
0.0
 11
-157.6905852981322
 21
-39.19999987805273
 31
0.0
  0
LINE
  5
378
330
63
100
AcDbEntity
  8
0
  6
Continuous
 62
     7
100
AcDbLine
 10
-158.1890148567354
 20
-39.19999987805105
 30
0.0
 11
-158.1890148567337
 21
-38.59999987805105
 31
0.0
  0
LINE
  5
379
330
63
100
AcDbEntity
  8
0
  6
Continuous
 62
     7
100
AcDbLine
 10
-180.1251152443616
 20
-39.19999987792366
 30
0.0
 11
-180.1612156319291
 21
-39.19999987792527
 31
0.0
  0
LINE
  5
37A
330
63
100
AcDbEntity
  8
0
  6
Continuous
 62
     7
100
AcDbLine
 10
-181.9905852981322
 20
-39.19999987792073
 30
0.0
 11
-181.6251152443322
 21
-39.19999987792171
 31
0.0
  0
LINE
  5
37B
330
63
100
AcDbEntity
  8
0
  6
Continuous
 62
     7
100
AcDbLine
 10
-192.8096451905323
 20
-39.19999987785828
 30
0.0
 11
-192.8096451905307
 21
-38.59999987785828
 31
0.0
  0
LINE
  5
37C
330
63
100
AcDbEntity
  8
0
  6
Continuous
 62
     7
100
AcDbLine
 10
-192.3112156319275
 20
-38.59999987785925
 30
0.0
 11
-192.3112156319291
 21
-39.19999987785926
 31
0.0
  0
LINE
  5
37D
330
63
100
AcDbEntity
  8
0
  6
Continuous
 62
     7
100
AcDbLine
 10
-192.27511524436
 20
-38.59999987785767
 30
0.0
 11
-192.2751152443616
 21
-39.19999987785766
 31
0.0
  0
LINE
  5
37E
330
63
100
AcDbEntity
  8
0
  6
Continuous
 62
     7
100
AcDbLine
 10
-156.3596451905323
 20
-39.19999987805629
 30
0.0
 11
-156.3596451905307
 21
-38.5999998780563
 31
0.0
  0
LINE
  5
37F
330
63
100
AcDbEntity
  8
0
  6
Continuous
 62
     7
100
AcDbLine
 10
-180.1612156319275
 20
-38.59999987792525
 30
0.0
 11
-180.1612156319291
 21
-39.19999987792527
 31
0.0
  0
LINE
  5
380
330
63
100
AcDbEntity
  8
0
  6
Continuous
 62
     7
100
AcDbLine
 10
-180.6596451905323
 20
-39.19999987792428
 30
0.0
 11
-180.6596451905307
 21
-38.59999987792428
 31
0.0
  0
LINE
  5
381
330
63
100
AcDbEntity
  8
0
  6
Continuous
 62
     7
100
AcDbLine
 10
-182.5251152443038
 20
-39.19999987791726
 30
0.0
 11
-182.5251152443022
 21
-38.59999987791726
 31
0.0
  0
LINE
  5
382
330
63
100
AcDbEntity
  8
0
  6
Continuous
 62
     7
100
AcDbLine
 10
-194.1405852981322
 20
-39.19999987785472
 30
0.0
 11
-193.7751152443322
 21
-39.1999998778557
 31
0.0
  0
LINE
  5
383
330
63
100
AcDbEntity
  8
0
  6
Continuous
 62
     7
100
AcDbLine
 10
-194.1405852981307
 20
-38.59999987785472
 30
0.0
 11
-194.1405852981322
 21
-39.19999987785472
 31
0.0
  0
LINE
  5
384
330
63
100
AcDbEntity
  8
0
  6
Continuous
 62
     7
100
AcDbLine
 10
-194.6390148567353
 20
-39.19999987785305
 30
0.0
 11
-194.6390148567338
 21
-38.59999987785303
 31
0.0
  0
LINE
  5
385
330
63
100
AcDbEntity
  8
0
  6
Continuous
 62
     7
100
AcDbLine
 10
-192.8096451905323
 20
-39.19999987785828
 30
0.0
 11
-193.1751152443322
 21
-39.1999998778573
 31
0.0
  0
LINE
  5
386
330
63
100
AcDbEntity
  8
0
  6
Continuous
 62
     7
100
AcDbLine
 10
-180.6596451905323
 20
-39.19999987792428
 30
0.0
 11
-181.0251152443322
 21
-39.1999998779233
 31
0.0
  0
LINE
  5
387
330
63
100
AcDbEntity
  8
0
  6
Continuous
 62
     7
100
AcDbLine
 10
-180.1251152443591
 20
-38.59999987792367
 30
0.0
 11
-180.1251152443616
 21
-39.19999987792366
 31
0.0
  0
LINE
  5
388
330
63
100
AcDbEntity
  8
0
  6
Continuous
 62
     7
100
AcDbLine
 10
-192.8096451905307
 20
-38.59999987785828
 30
0.0
 11
-193.1751152443306
 21
-38.5999998778573
 31
0.0
  0
LINE
  5
389
330
63
100
AcDbEntity
  8
0
  6
Continuous
 62
     7
100
AcDbLine
 10
-192.8096451905307
 20
-38.59999987785828
 30
0.0
 11
-192.3112156319275
 21
-38.59999987785925
 31
0.0
  0
LINE
  5
38A
330
63
100
AcDbEntity
  8
0
  6
Continuous
 62
     7
100
AcDbLine
 10
-192.3112156319275
 20
-38.59999987785925
 30
0.0
 11
-192.27511524436
 21
-38.59999987785767
 31
0.0
  0
LINE
  5
38B
330
63
100
AcDbEntity
  8
0
  6
Continuous
 62
     7
100
AcDbLine
 10
-193.1751152443296
 20
-38.19653448029556
 30
0.0
 11
-193.7751152443296
 21
-38.19653448029396
 31
0.0
  0
LINE
  5
38C
330
63
100
AcDbEntity
  8
0
  6
Continuous
 62
     7
100
AcDbLine
 10
-181.0251152443296
 20
-38.19653448036155
 30
0.0
 11
-181.6251152443296
 21
-38.19653448035997
 31
0.0
  0
LINE
  5
38D
330
63
100
AcDbEntity
  8
0
  6
Continuous
 62
     7
100
AcDbLine
 10
-181.6251152443296
 20
-38.19653448035997
 30
0.0
 11
-181.6251152443286
 21
-37.83175362769341
 31
0.0
  0
LINE
  5
38E
330
63
100
AcDbEntity
  8
0
  6
Continuous
 62
     7
100
AcDbLine
 10
-181.6251152443296
 20
-38.19653448035997
 30
0.0
 11
-181.6251152443306
 21
-38.59999987792169
 31
0.0
  0
LINE
  5
38F
330
63
100
AcDbEntity
  8
0
  6
Continuous
 62
     7
100
AcDbLine
 10
-181.6251152443286
 20
-37.83175362769341
 30
0.0
 11
-181.6251152443285
 21
-37.79999987790854
 31
0.0
  0
LINE
  5
390
330
63
100
AcDbEntity
  8
0
  6
Continuous
 62
     7
100
AcDbLine
 10
-193.7751152443296
 20
-38.19653448029396
 30
0.0
 11
-193.7751152443306
 21
-38.5999998778557
 31
0.0
  0
LINE
  5
391
330
63
100
AcDbEntity
  8
0
  6
Continuous
 62
     7
100
AcDbLine
 10
-193.7751152443296
 20
-38.19653448029396
 30
0.0
 11
-193.7751152443286
 21
-37.8317536276274
 31
0.0
  0
LINE
  5
392
330
63
100
AcDbEntity
  8
0
  6
Continuous
 62
     7
100
AcDbLine
 10
-194.1405852981307
 20
-38.59999987785472
 30
0.0
 11
-193.7751152443306
 21
-38.5999998778557
 31
0.0
  0
LINE
  5
393
330
63
100
AcDbEntity
  8
0
  6
Continuous
 62
     7
100
AcDbLine
 10
-194.6390148567338
 20
-38.59999987785303
 30
0.0
 11
-194.1405852981307
 21
-38.59999987785472
 31
0.0
  0
LINE
  5
394
330
63
100
AcDbEntity
  8
0
  6
Continuous
 62
     7
100
AcDbLine
 10
-181.0251152443286
 20
-37.83175362769502
 30
0.0
 11
-181.0251152443296
 21
-38.19653448036155
 31
0.0
  0
LINE
  5
395
330
63
100
AcDbEntity
  8
0
  6
Continuous
 62
     7
100
AcDbLine
 10
-181.0251152443296
 20
-38.19653448036155
 30
0.0
 11
-181.0251152443306
 21
-38.5999998779233
 31
0.0
  0
LINE
  5
396
330
63
100
AcDbEntity
  8
0
  6
Continuous
 62
     7
100
AcDbLine
 10
-180.6596451905307
 20
-38.59999987792428
 30
0.0
 11
-181.0251152443306
 21
-38.5999998779233
 31
0.0
  0
LINE
  5
397
330
63
100
AcDbEntity
  8
0
  6
Continuous
 62
     7
100
AcDbLine
 10
-182.5251152443022
 20
-38.59999987791726
 30
0.0
 11
-182.4890148567338
 21
-38.59999987791904
 31
0.0
  0
LINE
  5
398
330
63
100
AcDbEntity
  8
0
  6
Continuous
 62
     7
100
AcDbLine
 10
-180.1612156319275
 20
-38.59999987792525
 30
0.0
 11
-180.1251152443591
 21
-38.59999987792367
 31
0.0
  0
LINE
  5
399
330
63
100
AcDbEntity
  8
0
  6
Continuous
 62
     7
100
AcDbLine
 10
-182.4890148567338
 20
-38.59999987791904
 30
0.0
 11
-181.9905852981306
 21
-38.59999987792072
 31
0.0
  0
LINE
  5
39A
330
63
100
AcDbEntity
  8
0
  6
Continuous
 62
     7
100
AcDbLine
 10
-181.9905852981306
 20
-38.59999987792072
 30
0.0
 11
-181.6251152443306
 21
-38.59999987792169
 31
0.0
  0
LINE
  5
39B
330
63
100
AcDbEntity
  8
0
  6
Continuous
 62
     7
100
AcDbLine
 10
-193.1751152443296
 20
-38.19653448029556
 30
0.0
 11
-193.1751152443306
 21
-38.5999998778573
 31
0.0
  0
LINE
  5
39C
330
63
100
AcDbEntity
  8
0
  6
Continuous
 62
     7
100
AcDbLine
 10
-193.1751152443286
 20
-37.83175362762901
 30
0.0
 11
-193.1751152443296
 21
-38.19653448029556
 31
0.0
  0
LINE
  5
39D
330
63
100
AcDbEntity
  8
0
  6
Continuous
 62
     7
100
AcDbLine
 10
-157.3251152443285
 20
-37.79999987803957
 30
0.0
 11
-156.7251152443285
 21
-37.79999987804215
 31
0.0
  0
LINE
  5
39E
330
63
100
AcDbEntity
  8
0
  6
Continuous
 62
     7
100
AcDbLine
 10
-157.3251152443296
 20
-38.19653448049197
 30
0.0
 11
-157.3251152443286
 21
-37.83175362782542
 31
0.0
  0
LINE
  5
39F
330
63
100
AcDbEntity
  8
0
  6
Continuous
 62
     7
100
AcDbLine
 10
-156.7251152443286
 20
-37.83175362782702
 30
0.0
 11
-156.7251152443295
 21
-38.19653448049358
 31
0.0
  0
LINE
  5
3A0
330
63
100
AcDbEntity
  8
0
  6
Continuous
 62
     7
100
AcDbLine
 10
-158.2251152443022
 20
-38.59999987804928
 30
0.0
 11
-158.1890148567337
 21
-38.59999987805105
 31
0.0
  0
LINE
  5
3A1
330
63
100
AcDbEntity
  8
0
  6
Continuous
 62
     7
100
AcDbLine
 10
-156.3596451905307
 20
-38.5999998780563
 30
0.0
 11
-155.8612156319275
 21
-38.59999987805726
 31
0.0
  0
LINE
  5
3A2
330
63
100
AcDbEntity
  8
0
  6
Continuous
 62
     7
100
AcDbLine
 10
-158.1890148567337
 20
-38.59999987805105
 30
0.0
 11
-157.6905852981306
 21
-38.59999987805274
 31
0.0
  0
LINE
  5
3A3
330
63
100
AcDbEntity
  8
0
  6
Continuous
 62
     7
100
AcDbLine
 10
-155.8612156319275
 20
-38.59999987805726
 30
0.0
 11
-155.825115244359
 21
-38.59999987805567
 31
0.0
  0
LINE
  5
3A4
330
63
100
AcDbEntity
  8
0
  6
Continuous
 62
     7
100
AcDbLine
 10
-146.0751152443022
 20
-38.59999987811527
 30
0.0
 11
-146.0390148567337
 21
-38.59999987811705
 31
0.0
  0
LINE
  5
3A5
330
63
100
AcDbEntity
  8
0
  6
Continuous
 62
     7
100
AcDbLine
 10
-169.4751152443285
 20
-37.79999987797357
 30
0.0
 11
-168.8751152443285
 21
-37.79999987797518
 31
0.0
  0
LINE
  5
3A6
330
63
100
AcDbEntity
  8
0
  6
Continuous
 62
     7
100
AcDbLine
 10
-157.3251152443286
 20
-37.83175362782542
 30
0.0
 11
-156.7251152443286
 21
-37.83175362782702
 31
0.0
  0
LINE
  5
3A7
330
63
100
AcDbEntity
  8
0
  6
Continuous
 62
     7
100
AcDbLine
 10
-156.7251152443295
 20
-38.19653448049358
 30
0.0
 11
-157.3251152443296
 21
-38.19653448049197
 31
0.0
  0
LINE
  5
3A8
330
63
100
AcDbEntity
  8
0
  6
Continuous
 62
     7
100
AcDbLine
 10
-181.6251152443286
 20
-37.83175362769341
 30
0.0
 11
-181.0251152443286
 21
-37.83175362769502
 31
0.0
  0
LINE
  5
3A9
330
63
100
AcDbEntity
  8
0
  6
Continuous
 62
     7
100
AcDbLine
 10
-162.7001152443014
 20
-39.27499987916009
 30
0.0
 11
-163.1001152443138
 21
-39.67499988470741
 31
0.0
  0
LINE
  5
3AA
330
63
100
AcDbEntity
  8
0
  6
Continuous
 62
     7
100
AcDbLine
 10
-175.6501152442999
 20
-39.27499988465221
 30
0.0
 11
-175.6798052426055
 21
-39.24530988632913
 31
0.0
  0
LINE
  5
3AB
330
63
100
AcDbEntity
  8
0
  6
Continuous
 62
     7
100
AcDbLine
 10
-150.5501152443015
 20
-39.27499987923152
 30
0.0
 11
-150.9501152443187
 21
-39.67499988478371
 31
0.0
  0
LINE
  5
3AC
330
63
100
AcDbEntity
  8
0
  6
Continuous
 62
     7
100
AcDbLine
 10
-181.6251152443333
 20
-39.6034652754806
 30
0.0
 11
-181.0251152443333
 21
-39.60346527548218
 31
0.0
  0
LINE
  5
3AD
330
63
100
AcDbEntity
  8
0
  6
Continuous
 62
     7
100
AcDbLine
 10
-181.0251152443344
 20
-39.99999987793328
 30
0.0
 11
-181.6251152443344
 21
-39.99999987793169
 31
0.0
  0
LINE
  5
3AE
330
63
100
AcDbEntity
  8
0
  6
Continuous
 62
     7
100
AcDbLine
 10
-193.7751152443286
 20
-37.8317536276274
 30
0.0
 11
-193.1751152443286
 21
-37.83175362762901
 31
0.0
  0
LINE
  5
3AF
330
63
100
AcDbEntity
  8
0
  6
Continuous
 62
     7
100
AcDbLine
 10
-193.7751152443285
 20
-37.79999987784156
 30
0.0
 11
-193.1751152443285
 21
-37.79999987784316
 31
0.0
  0
LINE
  5
3B0
330
63
100
AcDbEntity
  8
0
  6
Continuous
 62
     7
100
AcDbLine
 10
-150.5501152443346
 20
-43.72499986798295
 30
0.0
 11
-150.5204252448477
 21
-43.75468986721651
 31
0.0
  0
LINE
  5
3B1
330
63
100
AcDbEntity
  8
0
  6
Continuous
 62
     7
100
AcDbLine
 10
-145.1751152443286
 20
-37.83175362789142
 30
0.0
 11
-145.1751152443285
 21
-37.79999987810557
 31
0.0
  0
LINE
  5
3B2
330
63
100
AcDbEntity
  8
0
  6
Continuous
 62
     7
100
AcDbLine
 10
-151.3798052426486
 20
-43.75468986950101
 30
0.0
 11
-151.350115244333
 21
-43.72499987120196
 31
0.0
  0
LINE
  5
3B3
330
63
100
AcDbEntity
  8
0
  6
Continuous
 62
     7
100
AcDbLine
 10
-151.350115244333
 20
-43.72499987120196
 30
0.0
 11
-150.9501152443131
 21
-43.32499987117793
 31
0.0
  0
LINE
  5
3B4
330
63
100
AcDbEntity
  8
0
  6
Continuous
 62
     7
100
AcDbLine
 10
-145.5405852981306
 20
-38.59999987811873
 30
0.0
 11
-145.1751152443306
 21
-38.59999987811971
 31
0.0
  0
LINE
  5
3B5
330
63
100
AcDbEntity
  8
0
  6
Continuous
 62
     7
100
AcDbLine
 10
-151.3834900350091
 20
-47.21662504643116
 30
0.0
 11
-151.3834900349239
 21
-35.78337468920179
 31
0.0
  0
LINE
  5
3B6
330
63
100
AcDbEntity
  8
0
  6
Continuous
 62
     7
100
AcDbLine
 10
-150.5204252448192
 20
-39.2453098793216
 30
0.0
 11
-150.5204252448477
 21
-43.75468986721651
 31
0.0
  0
LINE
  5
3B7
330
63
100
AcDbEntity
  8
0
  6
Continuous
 62
     7
100
AcDbLine
 10
-150.9501152443131
 20
-43.32499987117793
 30
0.0
 11
-150.9501152443187
 21
-39.67499988478371
 31
0.0
  0
LINE
  5
3B8
330
63
100
AcDbEntity
  8
0
  6
Continuous
 62
     7
100
AcDbLine
 10
-151.3798052426486
 20
-43.75468986950101
 30
0.0
 11
-151.3798052426051
 21
-39.24530988647225
 31
0.0
  0
LINE
  5
3B9
330
63
100
AcDbEntity
  8
0
  6
Continuous
 62
     7
100
AcDbLine
 10
-145.1751152443296
 20
-38.19653448055797
 30
0.0
 11
-145.1751152443286
 21
-37.83175362789142
 31
0.0
  0
LINE
  5
3BA
330
63
100
AcDbEntity
  8
0
  6
Continuous
 62
     7
100
AcDbLine
 10
-144.5751152443285
 20
-37.79999987810815
 30
0.0
 11
-144.5751152443286
 21
-37.83175362789302
 31
0.0
  0
LINE
  5
3BB
330
63
100
AcDbEntity
  8
0
  6
Continuous
 62
     7
100
AcDbLine
 10
-144.5751152443286
 20
-37.83175362789302
 30
0.0
 11
-144.5751152443295
 21
-38.19653448055957
 31
0.0
  0
LINE
  5
3BC
330
63
100
AcDbEntity
  8
0
  6
Continuous
 62
     7
100
AcDbLine
 10
-145.1751152443286
 20
-37.83175362789142
 30
0.0
 11
-144.5751152443286
 21
-37.83175362789302
 31
0.0
  0
LINE
  5
3BD
330
63
100
AcDbEntity
  8
0
  6
Continuous
 62
     7
100
AcDbLine
 10
-145.1751152443296
 20
-38.19653448055797
 30
0.0
 11
-145.1751152443306
 21
-38.59999987811971
 31
0.0
  0
LINE
  5
3BE
330
63
100
AcDbEntity
  8
0
  6
Continuous
 62
     7
100
AcDbLine
 10
-144.5751152443295
 20
-38.19653448055957
 30
0.0
 11
-145.1751152443296
 21
-38.19653448055797
 31
0.0
  0
LINE
  5
3BF
330
63
100
AcDbEntity
  8
0
  6
Continuous
 62
     7
100
AcDbLine
 10
-144.5751152443295
 20
-38.19653448055957
 30
0.0
 11
-144.5751152443306
 21
-38.59999987812131
 31
0.0
  0
LINE
  5
3C0
330
63
100
AcDbEntity
  8
0
  6
Continuous
 62
     7
100
AcDbLine
 10
-144.5751152443333
 20
-39.6034652756802
 30
0.0
 11
-144.5751152443343
 21
-39.96824612834853
 31
0.0
  0
LINE
  5
3C1
330
63
100
AcDbEntity
  8
0
  6
Continuous
 62
     7
100
AcDbLine
 10
-145.1751152443333
 20
-39.6034652756786
 30
0.0
 11
-144.5751152443333
 21
-39.6034652756802
 31
0.0
  0
LINE
  5
3C2
330
63
100
AcDbEntity
  8
0
  6
Continuous
 62
     7
100
AcDbLine
 10
-145.1751152443285
 20
-37.79999987810557
 30
0.0
 11
-144.5751152443285
 21
-37.79999987810815
 31
0.0
  0
LINE
  5
3C3
330
63
100
AcDbEntity
  8
0
  6
Continuous
 62
     7
100
AcDbLine
 10
-150.9501152443131
 20
-43.32499987117793
 30
0.0
 11
-150.5501152443346
 21
-43.72499986798295
 31
0.0
  0
LINE
  5
3C4
330
63
100
AcDbEntity
  8
0
  6
Continuous
 62
     7
100
AcDbLine
 10
-150.5501152443609
 20
-47.24999983706255
 30
0.0
 11
-150.5501152443346
 21
-43.72499986798295
 31
0.0
  0
LINE
  5
3C5
330
63
100
AcDbEntity
  8
0
  6
Continuous
 62
     7
100
AcDbLine
 10
-150.5501152443609
 20
-47.24999983706255
 30
0.0
 11
-139.2001152443593
 21
-47.24999983714722
 31
0.0
  0
LINE
  5
3C6
330
63
100
AcDbEntity
  8
0
  6
Continuous
 62
     7
100
AcDbLine
 10
-145.1751152443343
 20
-39.99999987812969
 30
0.0
 11
-145.1751152443343
 21
-39.96824612834692
 31
0.0
  0
LINE
  5
3C7
330
63
100
AcDbEntity
  8
0
  6
Continuous
 62
     7
100
AcDbLine
 10
-144.5751152443343
 20
-39.96824612834853
 30
0.0
 11
-144.5751152443344
 21
-39.99999987813033
 31
0.0
  0
LINE
  5
3C8
330
63
100
AcDbEntity
  8
0
  6
Continuous
 62
     7
100
AcDbLine
 10
-144.2096451905323
 20
-39.19999987812229
 30
0.0
 11
-144.5751152443322
 21
-39.19999987812131
 31
0.0
  0
LINE
  5
3C9
330
63
100
AcDbEntity
  8
0
  6
Continuous
 62
     7
100
AcDbLine
 10
-144.5751152443333
 20
-39.6034652756802
 30
0.0
 11
-144.5751152443322
 21
-39.19999987812131
 31
0.0
  0
LINE
  5
3CA
330
63
100
AcDbEntity
  8
0
  6
Continuous
 62
     7
100
AcDbLine
 10
-146.0390148567353
 20
-39.19999987811706
 30
0.0
 11
-146.0751152443038
 21
-39.19999987811527
 31
0.0
  0
LINE
  5
3CB
330
63
100
AcDbEntity
  8
0
  6
Continuous
 62
     7
100
AcDbLine
 10
-145.5405852981322
 20
-39.19999987811873
 30
0.0
 11
-146.0390148567353
 21
-39.19999987811706
 31
0.0
  0
LINE
  5
3CC
330
63
100
AcDbEntity
  8
0
  6
Continuous
 62
     7
100
AcDbLine
 10
-145.5405852981322
 20
-39.19999987811873
 30
0.0
 11
-145.1751152443322
 21
-39.19999987811971
 31
0.0
  0
LINE
  5
3CD
330
63
100
AcDbEntity
  8
0
  6
Continuous
 62
     7
100
AcDbLine
 10
-145.5405852981306
 20
-38.59999987811873
 30
0.0
 11
-145.5405852981322
 21
-39.19999987811873
 31
0.0
  0
LINE
  5
3CE
330
63
100
AcDbEntity
  8
0
  6
Continuous
 62
     7
100
AcDbLine
 10
-145.1751152443333
 20
-39.6034652756786
 30
0.0
 11
-145.1751152443322
 21
-39.19999987811971
 31
0.0
  0
LINE
  5
3CF
330
63
100
AcDbEntity
  8
0
  6
Continuous
 62
     7
100
AcDbLine
 10
-146.0751152443038
 20
-39.19999987811527
 30
0.0
 11
-146.0751152443022
 21
-38.59999987811527
 31
0.0
  0
LINE
  5
3D0
330
63
100
AcDbEntity
  8
0
  6
Continuous
 62
     7
100
AcDbLine
 10
-146.0390148567337
 20
-38.59999987811705
 30
0.0
 11
-145.5405852981306
 21
-38.59999987811873
 31
0.0
  0
LINE
  5
3D1
330
63
100
AcDbEntity
  8
0
  6
Continuous
 62
     7
100
AcDbLine
 10
-145.1751152443343
 20
-39.96824612834692
 30
0.0
 11
-145.1751152443333
 21
-39.6034652756786
 31
0.0
  0
LINE
  5
3D2
330
63
100
AcDbEntity
  8
0
  6
Continuous
 62
     7
100
AcDbLine
 10
-146.0390148567353
 20
-39.19999987811706
 30
0.0
 11
-146.0390148567337
 21
-38.59999987811705
 31
0.0
  0
LINE
  5
3D3
330
63
100
AcDbEntity
  8
0
  6
Continuous
 62
     7
100
AcDbLine
 10
-150.5167404537106
 20
-47.21662504641306
 30
0.0
 11
-139.2334900350091
 21
-47.21662504649715
 31
0.0
  0
LINE
  5
3D4
330
63
100
AcDbEntity
  8
0
  6
Continuous
 62
     7
100
AcDbLine
 10
-150.5204252448192
 20
-39.2453098793216
 30
0.0
 11
-150.5501152443015
 21
-39.27499987923152
 31
0.0
  0
LINE
  5
3D5
330
63
100
AcDbEntity
  8
0
  6
Continuous
 62
     7
100
AcDbLine
 10
-174.8501152443014
 20
-39.27499987908868
 30
0.0
 11
-174.8501152238355
 21
-35.74999987796142
 31
0.0
  0
LINE
  5
3D6
330
63
100
AcDbEntity
  8
0
  6
Continuous
 62
     7
100
AcDbLine
 10
-151.3501152442998
 20
-39.27499988479502
 30
0.0
 11
-151.3501152444951
 21
-35.74999989833013
 31
0.0
  0
LINE
  5
3D7
330
63
100
AcDbEntity
  8
0
  6
Continuous
 62
     7
100
AcDbLine
 10
-150.5501152647152
 20
-35.74999987803728
 30
0.0
 11
-139.2001152443278
 21
-35.74999987812188
 31
0.0
  0
LINE
  5
3D8
330
63
100
AcDbEntity
  8
0
  6
Continuous
 62
     7
100
AcDbLine
 10
-150.5167404536254
 20
-35.7833746891837
 30
0.0
 11
-150.5501152647152
 21
-35.74999987803728
 31
0.0
  0
LINE
  5
3D9
330
63
100
AcDbEntity
  8
0
  6
Continuous
 62
     7
100
AcDbLine
 10
-162.7001152443014
 20
-39.27499987916009
 30
0.0
 11
-162.7001152238355
 21
-35.74999987791517
 31
0.0
  0
LINE
  5
3DA
330
63
100
AcDbEntity
  8
0
  6
Continuous
 62
     7
100
AcDbLine
 10
-163.5001152442999
 20
-39.27499988472363
 30
0.0
 11
-163.5001152647693
 21
-35.74999987799004
 31
0.0
  0
LINE
  5
3DB
330
63
100
AcDbEntity
  8
0
  6
Continuous
 62
     7
100
AcDbLine
 10
-150.5501152443015
 20
-39.27499987923152
 30
0.0
 11
-150.5501152647152
 21
-35.74999987803728
 31
0.0
  0
LINE
  5
3DC
330
63
100
AcDbEntity
  8
0
  6
Continuous
 62
     7
100
AcDbLine
 10
-175.6501152442999
 20
-39.27499988465221
 30
0.0
 11
-175.6501152647136
 21
-35.74999987792387
 31
0.0
  0
LINE
  5
3DD
330
63
100
AcDbEntity
  8
0
  6
Continuous
 62
     7
100
AcDbLine
 10
-187.8001152442999
 20
-39.27499988481461
 30
0.0
 11
-187.8001152449313
 21
-35.74999985801973
 31
0.0
  0
LINE
  5
3DE
330
63
100
AcDbEntity
  8
0
  6
Continuous
 62
     7
100
AcDbLine
 10
-187.0001152443014
 20
-39.27499987925118
 30
0.0
 11
-187.0001152442752
 21
-35.74999987838172
 31
0.0
  0
LINE
  5
3DF
330
63
100
AcDbEntity
  8
0
  6
Continuous
 62
     7
100
AcDbLine
 10
-187.0001152443014
 20
-39.27499987925118
 30
0.0
 11
-187.4001152443128
 21
-39.67499988479757
 31
0.0
  0
ENDBLK
  5
65
330
63
100
AcDbEntity
  8
0
100
AcDbBlockEnd
  0
BLOCK
  5
68
330
66
100
AcDbEntity
  8
0
100
AcDbBlockBegin
  2
SA_Rechts1
 70
     0
 10
-169.1751148149486
 20
-41.49999997016398
 30
0.0
  3
SA_Rechts1
  1

  0
INSERT
  5
67
330
66
100
AcDbEntity
  8
0
100
AcDbBlockReference
  2
WS_PT_16-select__5
 10
-199.1501152443609
 20
-47.24999983714722
 30
0.0
  0
MTEXT
  5
3E0
330
66
100
AcDbEntity
  8
1
 62
     6
100
AcDbMText
 10
-169.1751148149487
 20
-49.75001984839435
 30
0.0
 40
2.5
 41
0.0
 71
     2
 72
     1
  1
 
  7
CONVERTER_11
 73
     1
 44
1.32052821128451
  0
ENDBLK
  5
69
330
66
100
AcDbEntity
  8
0
100
AcDbBlockEnd
  0
BLOCK
  5
6B
330
6A
100
AcDbEntity
  8
0
100
AcDbBlockBegin
  2
WS_PT_16-select__6
 70
     0
 10
-129.2000777806855
 20
-47.24999983706261
 30
0.0
  3
WS_PT_16-select__6
  1

  0
LINE
  5
3E1
330
6A
100
AcDbEntity
  8
0
  6
Continuous
 62
     7
100
AcDbLine
 10
-128.3369067231295
 20
-47.24999983706261
 30
0.0
 11
-127.700077780797
 21
-47.21662504634712
 31
0.0
  0
LINE
  5
3E2
330
6A
100
AcDbEntity
  8
0
  6
Continuous
 62
     7
100
AcDbLine
 10
-127.7000777807941
 20
-39.99999987786574
 30
0.0
 11
-127.700077780797
 21
-47.21662504634712
 31
0.0
  0
LINE
  5
3E3
330
6A
100
AcDbEntity
  8
0
  6
Continuous
 62
     7
100
AcDbLine
 10
-128.3369067231295
 20
-47.24999983706261
 30
0.0
 11
-128.3369071142073
 21
-35.74999987803734
 31
0.0
  0
LINE
  5
3E4
330
6A
100
AcDbEntity
  8
0
  6
Continuous
 62
     7
100
AcDbLine
 10
-122.7000777806824
 20
-39.60346527541464
 30
0.0
 11
-122.7000777806822
 21
-39.19999987785576
 31
0.0
  0
LINE
  5
3E5
330
6A
100
AcDbEntity
  8
0
  6
Continuous
 62
     7
100
AcDbLine
 10
-122.700077780682
 20
-38.59999987785576
 30
0.0
 11
-122.7000777806822
 21
-39.19999987785576
 31
0.0
  0
LINE
  5
3E6
330
6A
100
AcDbEntity
  8
0
  6
Continuous
 62
     7
100
AcDbLine
 10
-122.7000777806818
 20
-38.19653448029402
 30
0.0
 11
-122.700077780682
 21
-38.59999987785576
 31
0.0
  0
LINE
  5
3E7
330
6A
100
AcDbEntity
  8
0
  6
Continuous
 62
     7
100
AcDbLine
 10
-123.5633831001769
 20
-39.19999987811711
 30
0.0
 11
-123.5633831001767
 21
-38.59999987811711
 31
0.0
  0
LINE
  5
3E8
330
6A
100
AcDbEntity
  8
0
  6
Continuous
 62
     7
100
AcDbLine
 10
-123.5633831001767
 20
-38.59999987811711
 30
0.0
 11
-122.700077780682
 21
-38.59999987785576
 31
0.0
  0
LINE
  5
3E9
330
6A
100
AcDbEntity
  8
0
  6
Continuous
 62
     7
100
AcDbLine
 10
-122.7000777806818
 20
-38.19653448029402
 30
0.0
 11
-124.0614584564595
 21
-37.83175362762746
 31
0.0
  0
LINE
  5
3EA
330
6A
100
AcDbEntity
  8
0
  6
Continuous
 62
     7
100
AcDbLine
 10
-122.7000777806822
 20
-39.19999987785576
 30
0.0
 11
-123.5633831001769
 21
-39.19999987811711
 31
0.0
  0
LINE
  5
3EB
330
6A
100
AcDbEntity
  8
0
  6
Continuous
 62
     7
100
AcDbLine
 10
-123.5633831001769
 20
-39.19999987811711
 30
0.0
 11
-127.7000777807938
 21
-39.19999987811533
 31
0.0
  0
LINE
  5
3EC
330
6A
100
AcDbEntity
  8
0
  6
Continuous
 62
     7
100
AcDbLine
 10
-127.7000777807941
 20
-39.99999987786574
 30
0.0
 11
-124.0614584564711
 21
-39.96824612808296
 31
0.0
  0
LINE
  5
3ED
330
6A
100
AcDbEntity
  8
0
  6
Continuous
 62
     7
100
AcDbLine
 10
-127.7000777807924
 20
-35.78337468911775
 30
0.0
 11
-128.3369071142073
 21
-35.74999987803734
 31
0.0
  0
LINE
  5
3EE
330
6A
100
AcDbEntity
  8
0
  6
Continuous
 62
     7
100
AcDbLine
 10
-128.3369071142073
 20
-35.74999987803734
 30
0.0
 11
-129.2000777806808
 21
-35.7952367358097
 31
0.0
  0
LINE
  5
3EF
330
6A
100
AcDbEntity
  8
0
  6
Continuous
 62
     7
100
AcDbLine
 10
-127.7000777807936
 20
-38.59999987811533
 30
0.0
 11
-123.5633831001767
 21
-38.59999987811711
 31
0.0
  0
LINE
  5
3F0
330
6A
100
AcDbEntity
  8
0
  6
Continuous
 62
     7
100
AcDbLine
 10
-124.0614584564595
 20
-37.83175362762746
 30
0.0
 11
-127.7000777807933
 21
-37.79999987784162
 31
0.0
  0
LINE
  5
3F1
330
6A
100
AcDbEntity
  8
0
  6
Continuous
 62
     7
100
AcDbLine
 10
-127.7000777807933
 20
-37.79999987784162
 30
0.0
 11
-127.7000777807936
 21
-38.59999987811533
 31
0.0
  0
LINE
  5
3F2
330
6A
100
AcDbEntity
  8
0
  6
Continuous
 62
     7
100
AcDbLine
 10
-127.7000777807924
 20
-35.78337468911775
 30
0.0
 11
-127.7000777807933
 21
-37.79999987784162
 31
0.0
  0
LINE
  5
3F3
330
6A
100
AcDbEntity
  8
0
  6
Continuous
 62
     7
100
AcDbLine
 10
-127.7000777807936
 20
-38.59999987811533
 30
0.0
 11
-127.7000777807938
 21
-39.19999987811533
 31
0.0
  0
LINE
  5
3F4
330
6A
100
AcDbEntity
  8
0
  6
Continuous
 62
     7
100
AcDbLine
 10
-129.2000777806855
 20
-47.20476295879446
 30
0.0
 11
-128.3369067231295
 21
-47.24999983706261
 31
0.0
  0
LINE
  5
3F5
330
6A
100
AcDbEntity
  8
0
  6
Continuous
 62
     7
100
AcDbLine
 10
-127.7000777807938
 20
-39.19999987811533
 30
0.0
 11
-127.7000777807941
 21
-39.99999987786574
 31
0.0
  0
LINE
  5
3F6
330
6A
100
AcDbEntity
  8
0
  6
Continuous
 62
     7
100
AcDbLine
 10
-129.2000777806808
 20
-35.7952367358097
 30
0.0
 11
-129.2000777806855
 21
-47.20476295879446
 31
0.0
  0
LINE
  5
3F7
330
6A
100
AcDbEntity
  8
0
  6
Continuous
 62
     7
100
AcDbLine
 10
-124.0614584564711
 20
-39.96824612808296
 30
0.0
 11
-122.7000777806824
 21
-39.60346527541464
 31
0.0
  0
ENDBLK
  5
6C
330
6A
100
AcDbEntity
  8
0
100
AcDbBlockEnd
  0
BLOCK
  5
6F
330
6D
100
AcDbEntity
  8
0
100
AcDbBlockBegin
  2
Vordans1
 70
     0
 10
-125.9500770244922
 20
-41.49999997016404
 30
0.0
  3
Vordans1
  1

  0
INSERT
  5
6E
330
6D
100
AcDbEntity
  8
0
100
AcDbBlockReference
  2
WS_PT_16-select__6
 10
-129.2000777806855
 20
-47.24999983706261
 30
0.0
  0
MTEXT
  5
3F8
330
6D
100
AcDbEntity
  8
1
 62
     6
100
AcDbMText
 10
-125.9500770244918
 20
-49.7500198483944
 30
0.0
 40
2.5
 41
0.0
 71
     2
 72
     1
  1
 
  7
CONVERTER_11
 73
     1
 44
1.32052821128451
  0
DIMENSION
  5
403
330
6D
100
AcDbEntity
  8
1
100
AcDbDimension
  2
*D19
 10
-122.7000777806824
 20
-52.20476295879446
 30
0.0
 11
-125.9500770244921
 21
-50.49226295879446
 31
0.0
 70
    32
  1
<>
 71
     5
 42
-1.0
 53
0.00013888888889
  3
ME10_DIM_12
100
AcDbAlignedDimension
 13
-129.2000777806855
 23
-47.20476295879446
 33
0.0
 14
-122.7000777806824
 24
-39.60346527541464
 34
0.0
100
AcDbRotatedDimension
  0
ENDBLK
  5
70
330
6D
100
AcDbEntity
  8
0
100
AcDbBlockEnd
  0
BLOCK
  5
72
330
71
100
AcDbEntity
  8
0
100
AcDbBlockBegin
  2
_rahmen
 70
     0
 10
-42.70821969616969
 20
-314.224989179649
 30
0.0
  3
_rahmen
  1

  0
LINE
  5
404
330
71
100
AcDbEntity
  8
1
  6
Continuous
 62
     6
100
AcDbLine
 10
-111.0415530295031
 20
-309.224989179649
 30
0.0
 11
-42.70821969616975
 21
-309.2249891796495
 31
0.0
  0
LINE
  5
405
330
71
100
AcDbEntity
  8
1
  6
Continuous
 62
     6
100
AcDbLine
 10
-42.70821969617015
 20
-300.7249891796496
 30
0.0
 11
-42.70821969616969
 21
-292.2249891796496
 31
0.0
  0
LINE
  5
406
330
71
100
AcDbEntity
  8
1
  6
Continuous
 62
     6
100
AcDbLine
 10
-42.70821969616969
 20
-292.2249891796496
 30
0.0
 11
-42.70821969617066
 21
-287.9749891796496
 31
0.0
  0
LINE
  5
407
330
71
100
AcDbEntity
  8
1
  6
Continuous
 62
     6
100
AcDbLine
 10
-42.70821969617066
 20
-287.9749891796496
 30
0.0
 11
-42.70821969616975
 21
-251.8249891796489
 31
0.0
  0
LINE
  5
408
330
71
100
AcDbEntity
  8
1
  6
Continuous
 62
     2
100
AcDbLine
 10
-247.7082196961697
 20
-314.224989179649
 30
0.0
 11
-316.0415530295028
 21
-314.224989179649
 31
0.0
  0
LINE
  5
409
330
71
100
AcDbEntity
  8
1
  6
Continuous
 62
     2
100
AcDbLine
 10
-111.0415530295031
 20
-314.224989179649
 30
0.0
 11
-42.70821969616969
 21
-314.224989179649
 31
0.0
  0
LINE
  5
40A
330
71
100
AcDbEntity
  8
1
  6
Continuous
 62
     2
100
AcDbLine
 10
-111.0415530295031
 20
-314.224989179649
 30
0.0
 11
-111.0415530295031
 21
-309.224989179649
 31
0.0
  0
LINE
  5
40B
330
71
100
AcDbEntity
  8
1
  6
Continuous
 62
     2
100
AcDbLine
 10
-179.3748863628363
 20
-314.224989179649
 30
0.0
 11
-179.3748863628363
 21
-309.2249891796519
 31
0.0
  0
LINE
  5
40C
330
71
100
AcDbEntity
  8
1
  6
Continuous
 62
     2
100
AcDbLine
 10
-247.7082196961697
 20
-314.224989179649
 30
0.0
 11
-247.7082196961697
 21
-309.224989179649
 31
0.0
  0
LINE
  5
40D
330
71
100
AcDbEntity
  8
1
  6
Continuous
 62
     2
100
AcDbLine
 10
-37.70821969617219
 20
-251.8249891796489
 30
0.0
 11
-37.70821969617219
 21
-194.4249891796488
 31
0.0
  0
LINE
  5
40E
330
71
100
AcDbEntity
  8
1
  6
Continuous
 62
     2
100
AcDbLine
 10
-37.70821969617219
 20
-251.8249891796489
 30
0.0
 11
-42.70821969616975
 21
-251.8249891796489
 31
0.0
  0
LINE
  5
40F
330
71
100
AcDbEntity
  8
1
  6
Continuous
 62
     2
100
AcDbLine
 10
-437.7082196961704
 20
-314.224989179649
 30
0.0
 11
-457.7082196961705
 21
-314.224989179649
 31
0.0
  0
LINE
  5
410
330
71
100
AcDbEntity
  8
1
  6
Continuous
 62
     2
100
AcDbLine
 10
-384.3748863628363
 20
-314.224989179649
 30
0.0
 11
-384.3748863628363
 21
-309.224989179649
 31
0.0
  0
LINE
  5
411
330
71
100
AcDbEntity
  8
1
  6
Continuous
 62
     2
100
AcDbLine
 10
-384.3748863628363
 20
-314.224989179649
 30
0.0
 11
-316.0415530295028
 21
-314.224989179649
 31
0.0
  0
LINE
  5
412
330
71
100
AcDbEntity
  8
1
  6
Continuous
 62
     6
100
AcDbLine
 10
-384.3748863628363
 20
-309.224989179649
 30
0.0
 11
-316.0415530295028
 21
-309.224989179649
 31
0.0
  0
LINE
  5
413
330
71
100
AcDbEntity
  8
1
  6
Continuous
 62
     6
100
AcDbLine
 10
-384.3748863628363
 20
-309.224989179649
 30
0.0
 11
-437.7082196961694
 21
-309.224989179649
 31
0.0
  0
LINE
  5
414
330
71
100
AcDbEntity
  8
1
  6
Continuous
 62
     2
100
AcDbLine
 10
-316.0415530295028
 20
-314.224989179649
 30
0.0
 11
-316.0415530295028
 21
-309.224989179649
 31
0.0
  0
LINE
  5
415
330
71
100
AcDbEntity
  8
1
  6
Continuous
 62
     2
100
AcDbLine
 10
-437.7082196961704
 20
-314.224989179649
 30
0.0
 11
-437.7082196961704
 21
-310.224989179649
 31
0.0
  0
LINE
  5
416
330
71
100
AcDbEntity
  8
1
  6
Continuous
 62
     2
100
AcDbLine
 10
-437.7082196961704
 20
-314.224989179649
 30
0.0
 11
-384.3748863628363
 21
-314.224989179649
 31
0.0
  0
LINE
  5
417
330
71
100
AcDbEntity
  8
1
  6
Continuous
 62
     2
100
AcDbLine
 10
-227.7082196961725
 20
-314.224989179649
 30
0.0
 11
-247.7082196961697
 21
-314.224989179649
 31
0.0
  0
LINE
  5
418
330
71
100
AcDbEntity
  8
1
  6
Continuous
 62
     2
100
AcDbLine
 10
-227.7082196961725
 20
-314.224989179649
 30
0.0
 11
-227.7082196961725
 21
-310.224989179649
 31
0.0
  0
LINE
  5
419
330
71
100
AcDbEntity
  8
1
  6
Continuous
 62
     2
100
AcDbLine
 10
-227.7082196961725
 20
-314.224989179649
 30
0.0
 11
-179.3748863628363
 21
-314.224989179649
 31
0.0
  0
LINE
  5
41A
330
71
100
AcDbEntity
  8
1
  6
Continuous
 62
     2
100
AcDbLine
 10
-179.3748863628363
 20
-314.224989179649
 30
0.0
 11
-111.0415530295031
 21
-314.224989179649
 31
0.0
  0
LINE
  5
41B
330
71
100
AcDbEntity
  8
1
  6
Continuous
 62
     2
100
AcDbLine
 10
-37.70821969617219
 20
-314.224989179649
 30
0.0
 11
-42.70821969616969
 21
-314.224989179649
 31
0.0
  0
LINE
  5
41C
330
71
100
AcDbEntity
  8
1
  6
Continuous
 62
     2
100
AcDbLine
 10
-37.70821969617219
 20
-309.224989179649
 30
0.0
 11
-37.70821969617219
 21
-314.224989179649
 31
0.0
  0
LINE
  5
41D
330
71
100
AcDbEntity
  8
1
  6
Continuous
 62
     2
100
AcDbLine
 10
-37.70821969617219
 20
-309.224989179649
 30
0.0
 11
-37.70821969617219
 21
-251.8249891796489
 31
0.0
  0
LINE
  5
41E
330
71
100
AcDbEntity
  8
1
  6
Continuous
 62
     2
100
AcDbLine
 10
-37.70821969617219
 20
-17.22498917964902
 30
0.0
 11
-42.70821969617219
 21
-17.22498917964902
 31
0.0
  0
LINE
  5
41F
330
71
100
AcDbEntity
  8
1
  6
Continuous
 62
     6
100
AcDbLine
 10
-42.70821969617219
 20
-22.22498917964902
 30
0.0
 11
-42.70821969617168
 21
-79.6249891796491
 31
0.0
  0
LINE
  5
420
330
71
100
AcDbEntity
  8
1
  6
Continuous
 62
     2
100
AcDbLine
 10
-37.70821969617219
 20
-17.22498917964902
 30
0.0
 11
-37.70821969617219
 21
-22.22498917964902
 31
0.0
  0
LINE
  5
421
330
71
100
AcDbEntity
  8
1
  6
Continuous
 62
     2
100
AcDbLine
 10
-42.70821969617219
 20
-22.22498917964902
 30
0.0
 11
-42.70821969617219
 21
-17.22498917964902
 31
0.0
  0
LINE
  5
422
330
71
100
AcDbEntity
  8
1
  6
Continuous
 62
     2
100
AcDbLine
 10
-42.70821969617219
 20
-22.22498917964902
 30
0.0
 11
-37.70821969617219
 21
-22.22498917964902
 31
0.0
  0
LINE
  5
423
330
71
100
AcDbEntity
  8
1
  6
Continuous
 62
     2
100
AcDbLine
 10
-37.70821969617219
 20
-22.22498917964902
 30
0.0
 11
-37.70821969617219
 21
-79.6249891796491
 31
0.0
  0
LINE
  5
424
330
71
100
AcDbEntity
  8
1
  6
Continuous
 62
     2
100
AcDbLine
 10
-42.70821969617168
 20
-79.6249891796491
 30
0.0
 11
-37.70821969617219
 21
-79.6249891796491
 31
0.0
  0
LINE
  5
425
330
71
100
AcDbEntity
  8
1
  6
Continuous
 62
     6
100
AcDbLine
 10
-42.70821969617168
 20
-79.6249891796491
 30
0.0
 11
-42.70821969616969
 21
-137.024989179649
 31
0.0
  0
LINE
  5
426
330
71
100
AcDbEntity
  8
1
  6
Continuous
 62
     2
100
AcDbLine
 10
-37.70821969617219
 20
-79.6249891796491
 30
0.0
 11
-37.70821969617219
 21
-137.024989179649
 31
0.0
  0
LINE
  5
427
330
71
100
AcDbEntity
  8
1
  6
Continuous
 62
     2
100
AcDbLine
 10
-42.70821969616969
 20
-137.024989179649
 30
0.0
 11
-37.70821969617219
 21
-137.024989179649
 31
0.0
  0
LINE
  5
428
330
71
100
AcDbEntity
  8
1
  6
Continuous
 62
     6
100
AcDbLine
 10
-42.70821969616969
 20
-137.024989179649
 30
0.0
 11
-42.70821969616969
 21
-194.4249891796488
 31
0.0
  0
LINE
  5
429
330
71
100
AcDbEntity
  8
1
  6
Continuous
 62
     2
100
AcDbLine
 10
-37.70821969617219
 20
-137.024989179649
 30
0.0
 11
-37.70821969617219
 21
-194.4249891796488
 31
0.0
  0
LINE
  5
42A
330
71
100
AcDbEntity
  8
1
  6
Continuous
 62
     2
100
AcDbLine
 10
-42.70821969616969
 20
-194.4249891796488
 30
0.0
 11
-37.70821969617219
 21
-194.4249891796488
 31
0.0
  0
LINE
  5
42B
330
71
100
AcDbEntity
  8
1
  6
Continuous
 62
     6
100
AcDbLine
 10
-42.70821969616969
 20
-194.4249891796488
 30
0.0
 11
-42.70821969616975
 21
-251.8249891796489
 31
0.0
  0
LINE
  5
42C
330
71
100
AcDbEntity
  8
1
  6
Continuous
 62
     6
100
AcDbLine
 10
-437.7082196961704
 20
-22.22498917964879
 30
0.0
 11
-384.3748863628363
 21
-22.22498917964879
 31
0.0
  0
LINE
  5
42D
330
71
100
AcDbEntity
  8
1
  6
Continuous
 62
     2
100
AcDbLine
 10
-42.70821969617219
 20
-17.22498917964902
 30
0.0
 11
-111.0415530295031
 21
-17.22498917964902
 31
0.0
  0
LINE
  5
42E
330
71
100
AcDbEntity
  8
1
  6
Continuous
 62
     2
100
AcDbLine
 10
-111.0415530295031
 20
-22.22498917964902
 30
0.0
 11
-111.0415530295031
 21
-17.22498917964902
 31
0.0
  0
LINE
  5
42F
330
71
100
AcDbEntity
  8
1
  6
Continuous
 62
     6
100
AcDbLine
 10
-111.0415530295031
 20
-22.22498917964902
 30
0.0
 11
-42.70821969617219
 21
-22.22498917964902
 31
0.0
  0
LINE
  5
430
330
71
100
AcDbEntity
  8
1
  6
Continuous
 62
     2
100
AcDbLine
 10
-111.0415530295031
 20
-17.22498917964902
 30
0.0
 11
-179.3748863628363
 21
-17.22498917964902
 31
0.0
  0
LINE
  5
431
330
71
100
AcDbEntity
  8
1
  6
Continuous
 62
     2
100
AcDbLine
 10
-179.3748863628363
 20
-22.22498917964902
 30
0.0
 11
-179.3748863628363
 21
-17.22498917964902
 31
0.0
  0
LINE
  5
432
330
71
100
AcDbEntity
  8
1
  6
Continuous
 62
     6
100
AcDbLine
 10
-179.3748863628363
 20
-22.22498917964902
 30
0.0
 11
-111.0415530295031
 21
-22.22498917964902
 31
0.0
  0
LINE
  5
433
330
71
100
AcDbEntity
  8
1
  6
Continuous
 62
     2
100
AcDbLine
 10
-179.3748863628363
 20
-17.22498917964902
 30
0.0
 11
-227.7082196961725
 21
-17.22498917964902
 31
0.0
  0
LINE
  5
434
330
71
100
AcDbEntity
  8
1
  6
Continuous
 62
     2
100
AcDbLine
 10
-247.7082196961697
 20
-22.22498917964902
 30
0.0
 11
-247.7082196961697
 21
-17.22498917964902
 31
0.0
  0
LINE
  5
435
330
71
100
AcDbEntity
  8
1
  6
Continuous
 62
     6
100
AcDbLine
 10
-247.7082196961697
 20
-22.22498917964902
 30
0.0
 11
-179.3748863628363
 21
-22.22498917964902
 31
0.0
  0
LINE
  5
436
330
71
100
AcDbEntity
  8
1
  6
Continuous
 62
     2
100
AcDbLine
 10
-247.7082196961697
 20
-17.22498917964902
 30
0.0
 11
-316.0415530295028
 21
-17.22498917964902
 31
0.0
  0
LINE
  5
437
330
71
100
AcDbEntity
  8
1
  6
Continuous
 62
     2
100
AcDbLine
 10
-316.0415530295028
 20
-22.22498917964902
 30
0.0
 11
-316.0415530295028
 21
-17.22498917964902
 31
0.0
  0
LINE
  5
438
330
71
100
AcDbEntity
  8
1
  6
Continuous
 62
     6
100
AcDbLine
 10
-316.0415530295028
 20
-22.22498917964902
 30
0.0
 11
-247.7082196961697
 21
-22.22498917964902
 31
0.0
  0
LINE
  5
439
330
71
100
AcDbEntity
  8
1
  6
Continuous
 62
     2
100
AcDbLine
 10
-316.0415530295028
 20
-17.22498917964902
 30
0.0
 11
-384.3748863628363
 21
-17.22498917964902
 31
0.0
  0
LINE
  5
43A
330
71
100
AcDbEntity
  8
1
  6
Continuous
 62
     2
100
AcDbLine
 10
-384.3748863628363
 20
-22.22498917964879
 30
0.0
 11
-384.3748863628363
 21
-17.22498917964902
 31
0.0
  0
LINE
  5
43B
330
71
100
AcDbEntity
  8
1
  6
Continuous
 62
     6
100
AcDbLine
 10
-384.3748863628363
 20
-22.22498917964879
 30
0.0
 11
-316.0415530295028
 21
-22.22498917964902
 31
0.0
  0
LINE
  5
43C
330
71
100
AcDbEntity
  8
1
  6
Continuous
 62
     2
100
AcDbLine
 10
-384.3748863628363
 20
-17.22498917964902
 30
0.0
 11
-437.7082196961704
 21
-17.22498917964902
 31
0.0
  0
LINE
  5
43D
330
71
100
AcDbEntity
  8
1
  6
Continuous
 62
     2
100
AcDbLine
 10
-437.7082196961704
 20
-17.22498917964902
 30
0.0
 11
-437.7082196961704
 21
-21.22498917964879
 31
0.0
  0
LINE
  5
43E
330
71
100
AcDbEntity
  8
1
  6
Continuous
 62
     2
100
AcDbLine
 10
-437.7082196961704
 20
-17.22498917964902
 30
0.0
 11
-457.7082196961705
 21
-17.22498917964902
 31
0.0
  0
LINE
  5
43F
330
71
100
AcDbEntity
  8
1
  6
Continuous
 62
     2
100
AcDbLine
 10
-227.7082196961725
 20
-17.22498917964902
 30
0.0
 11
-227.7082196961725
 21
-21.22498917964879
 31
0.0
  0
LINE
  5
440
330
71
100
AcDbEntity
  8
1
  6
Continuous
 62
     2
100
AcDbLine
 10
-227.7082196961725
 20
-17.22498917964902
 30
0.0
 11
-247.7082196961697
 21
-17.22498917964902
 31
0.0
  0
LINE
  5
441
330
71
100
AcDbEntity
  8
1
  6
Continuous
 62
     2
100
AcDbLine
 10
-457.7082196961705
 20
-17.22498917964902
 30
0.0
 11
-457.7082196961705
 21
-165.724989179649
 31
0.0
  0
LINE
  5
442
330
71
100
AcDbEntity
  8
1
  6
Continuous
 62
     2
100
AcDbLine
 10
-457.7082196961705
 20
-165.724989179649
 30
0.0
 11
-447.7082196961704
 21
-165.724989179649
 31
0.0
  0
LINE
  5
443
330
71
100
AcDbEntity
  8
1
  6
Continuous
 62
     2
100
AcDbLine
 10
-457.7082196961705
 20
-165.724989179649
 30
0.0
 11
-457.7082196961705
 21
-314.224989179649
 31
0.0
  0
LINE
  5
444
330
71
100
AcDbEntity
  8
1
  6
Continuous
 62
     6
100
AcDbLine
 10
-437.7082196961694
 20
-309.224989179649
 30
0.0
 11
-437.7082196961704
 21
-22.22498917964879
 31
0.0
  0
LINE
  5
445
330
71
100
AcDbEntity
  8
1
  6
Continuous
 62
     6
100
AcDbLine
 10
-42.70821969616975
 20
-309.2249891796495
 30
0.0
 11
-42.70821969617015
 21
-300.7249891796496
 31
0.0
  0
LINE
  5
446
330
71
100
AcDbEntity
  8
1
  6
Continuous
 62
     6
100
AcDbLine
 10
-316.0415530295028
 20
-309.224989179649
 30
0.0
 11
-172.2530242229196
 21
-309.2249891796521
 31
0.0
  0
LINE
  5
447
330
71
100
AcDbEntity
  8
1
  6
Continuous
 62
     2
100
AcDbLine
 10
-179.3748863628363
 20
-309.2249891796519
 30
0.0
 11
-179.3748863628363
 21
-309.224989179649
 31
0.0
  0
LINE
  5
448
330
71
100
AcDbEntity
  8
1
  6
Continuous
 62
     6
100
AcDbLine
 10
-42.7082196961679
 20
-292.2249891796496
 30
0.0
 11
-42.7082196961679
 21
-283.7249891796496
 31
0.0
  0
LINE
  5
449
330
71
100
AcDbEntity
  8
1
  6
Continuous
 62
     7
100
AcDbLine
 10
-107.9530242229197
 20
-300.7249891796496
 30
0.0
 11
-107.9530242229197
 21
-292.2249891796496
 31
0.0
  0
LINE
  5
44A
330
71
100
AcDbEntity
  8
1
  6
Continuous
 62
     6
100
AcDbLine
 10
-135.8530242229197
 20
-292.2249891796496
 30
0.0
 11
-42.7082196961679
 21
-292.2249891796496
 31
0.0
  0
LINE
  5
44B
330
71
100
AcDbEntity
  8
1
  6
Continuous
 62
     7
100
AcDbLine
 10
-172.2530242229196
 20
-292.2249891796496
 30
0.0
 11
-172.2530242229196
 21
-283.7249891796496
 31
0.0
  0
LINE
  5
44C
330
71
100
AcDbEntity
  8
1
  6
Continuous
 62
     7
100
AcDbLine
 10
-135.8530242229197
 20
-292.2249891796496
 30
0.0
 11
-135.8530242229197
 21
-283.7249891796496
 31
0.0
  0
LINE
  5
44D
330
71
100
AcDbEntity
  8
1
  6
Continuous
 62
     7
100
AcDbLine
 10
-78.12662797784672
 20
-283.7249891796496
 30
0.0
 11
-78.12662797784672
 21
-292.2249891796496
 31
0.0
  0
LINE
  5
44E
330
71
100
AcDbEntity
  8
1
  6
Continuous
 62
     7
100
AcDbLine
 10
-51.62662797784709
 20
-283.7249891796496
 30
0.0
 11
-51.62662797784709
 21
-292.2249891796496
 31
0.0
  0
LINE
  5
44F
330
71
100
AcDbEntity
  8
1
  6
Continuous
 62
     7
100
AcDbLine
 10
-42.7082196961684
 20
-300.7249891796496
 30
0.0
 11
-135.8530242229197
 21
-300.7249891796496
 31
0.0
  0
LINE
  5
450
102
{ACAD_REACTORS
330
535
330
536
102
}
330
71
100
AcDbEntity
  8
0
  6
Continuous
 62
     2
100
AcDbLine
 10
-158.5455952811522
 20
-299.9247000639863
 30
0.0
 11
-158.5455952811522
 21
-299.052183057183
 31
0.0
  0
LINE
  5
451
102
{ACAD_REACTORS
330
535
330
536
102
}
330
71
100
AcDbEntity
  8
0
  6
Continuous
 62
     2
100
AcDbLine
 10
-158.5455952811522
 20
-300.8844687714691
 30
0.0
 11
-158.5455952811522
 21
-301.7569857782724
 31
0.0
  0
LINE
  5
452
102
{ACAD_REACTORS
330
537
330
538
102
}
330
71
100
AcDbEntity
  8
0
  6
Continuous
 62
     2
100
AcDbLine
 10
-143.2125511448618
 20
-299.6629449619458
 30
0.0
 11
-142.1089118452937
 21
-299.6629449619458
 31
0.0
  0
LINE
  5
453
102
{ACAD_REACTORS
330
537
330
538
102
}
330
71
100
AcDbEntity
  8
0
  6
Continuous
 62
     2
100
AcDbLine
 10
-142.4428938019004
 20
-300.8844687714696
 30
0.0
 11
-142.4428938019004
 21
-301.7569857782729
 31
0.0
  0
LINE
  5
454
102
{ACAD_REACTORS
330
541
330
542
102
}
330
71
100
AcDbEntity
  8
0
  6
Continuous
 62
     2
100
AcDbLine
 10
-144.3036504172802
 20
-298.5722987034589
 30
0.0
 11
-142.9056973703399
 21
-296.991439709684
 31
0.0
  0
LINE
  5
455
102
{ACAD_REACTORS
330
541
330
542
102
}
330
71
100
AcDbEntity
  8
0
  6
Continuous
 62
     2
100
AcDbLine
 10
-144.2082270011074
 20
-295.5184891796478
 30
0.0
 11
-142.9056973703399
 21
-296.991439709684
 31
0.0
  0
LINE
  5
456
102
{ACAD_REACTORS
330
541
330
542
102
}
330
71
100
AcDbEntity
  8
0
  6
Continuous
 62
     2
100
AcDbLine
 10
-141.6031677395735
 20
-295.5184891796478
 30
0.0
 11
-140.2004435218263
 21
-295.5184891796478
 31
0.0
  0
LINE
  5
457
102
{ACAD_REACTORS
330
541
330
542
102
}
330
71
100
AcDbEntity
  8
0
  6
Continuous
 62
     2
100
AcDbLine
 10
-142.9009261995321
 20
-298.5722987034589
 30
0.0
 11
-142.2043352614663
 21
-297.7845669181652
 31
0.0
  0
LINE
  5
458
102
{ACAD_REACTORS
330
541
330
542
102
}
330
71
100
AcDbEntity
  8
0
  6
Continuous
 62
     2
100
AcDbLine
 10
-142.9009261995321
 20
-298.5722987034589
 30
0.0
 11
-144.3036504172802
 21
-298.5722987034589
 31
0.0
  0
LINE
  5
459
102
{ACAD_REACTORS
330
543
330
544
102
}
330
71
100
AcDbEntity
  8
0
  6
Continuous
 62
     2
100
AcDbLine
 10
-144.4229296874971
 20
-298.5722987034589
 30
0.0
 11
-145.66343409775
 21
-298.5722987034589
 31
0.0
  0
LINE
  5
45A
102
{ACAD_REACTORS
330
545
330
546
102
}
330
71
100
AcDbEntity
  8
0
  6
Continuous
 62
     2
100
AcDbLine
 10
-146.5314137059051
 20
-300.7099653701088
 30
0.0
 11
-146.8315789430953
 21
-299.9421504041221
 31
0.0
  0
LINE
  5
45B
102
{ACAD_REACTORS
330
545
330
546
102
}
330
71
100
AcDbEntity
  8
0
  6
Continuous
 62
     2
100
AcDbLine
 10
-147.1317441802876
 20
-300.7099653701088
 30
0.0
 11
-146.5314137059051
 21
-300.7099653701088
 31
0.0
  0
LINE
  5
45C
102
{ACAD_REACTORS
330
545
330
546
102
}
330
71
100
AcDbEntity
  8
0
  6
Continuous
 62
     2
100
AcDbLine
 10
-148.8497841951614
 20
-301.9314891796332
 30
0.0
 11
-147.6092797849085
 21
-301.9314891796332
 31
0.0
  0
LINE
  5
45D
102
{ACAD_REACTORS
330
545
330
546
102
}
330
71
100
AcDbEntity
  8
0
  6
Continuous
 62
     2
100
AcDbLine
 10
-147.4518311482222
 20
-298.8776796558221
 30
0.0
 11
-146.2113267379694
 21
-298.8776796558221
 31
0.0
  0
LINE
  5
45E
102
{ACAD_REACTORS
330
545
330
546
102
}
330
71
100
AcDbEntity
  8
0
  6
Continuous
 62
     2
100
AcDbLine
 10
-146.2113267379694
 20
-298.8776796558221
 30
0.0
 11
-144.8133736910291
 21
-301.9314891796332
 31
0.0
  0
LINE
  5
45F
102
{ACAD_REACTORS
330
545
330
546
102
}
330
71
100
AcDbEntity
  8
0
  6
Continuous
 62
     2
100
AcDbLine
 10
-146.053878101283
 20
-301.9314891796332
 30
0.0
 11
-146.2653581547588
 21
-301.3905286354154
 31
0.0
  0
LINE
  5
460
102
{ACAD_REACTORS
330
547
330
548
102
}
330
71
100
AcDbEntity
  8
0
  6
Continuous
 62
     2
100
AcDbLine
 10
-150.196197296869
 20
-301.9314891796332
 30
0.0
 11
-149.0034045947026
 21
-301.9314891796332
 31
0.0
  0
LINE
  5
461
102
{ACAD_REACTORS
330
547
330
548
102
}
330
71
100
AcDbEntity
  8
0
  6
Continuous
 62
     2
100
AcDbLine
 10
-150.196197296869
 20
-299.6629449619458
 30
0.0
 11
-150.196197296869
 21
-301.9314891796332
 31
0.0
  0
LINE
  5
462
102
{ACAD_REACTORS
330
547
330
548
102
}
330
71
100
AcDbEntity
  8
0
  6
Continuous
 62
     2
100
AcDbLine
 10
-151.0072963343437
 20
-298.8776796558221
 30
0.0
 11
-151.0072963343437
 21
-299.6629449619458
 31
0.0
  0
LINE
  5
463
102
{ACAD_REACTORS
330
549
330
54A
102
}
330
71
100
AcDbEntity
  8
0
  6
Continuous
 62
     2
100
AcDbLine
 10
-149.528082452771
 20
-298.5722987034589
 30
0.0
 11
-148.3352897506046
 21
-298.5722987034589
 31
0.0
  0
LINE
  5
464
102
{ACAD_REACTORS
330
549
330
54A
102
}
330
71
100
AcDbEntity
  8
0
  6
Continuous
 62
     2
100
AcDbLine
 10
-147.0947853403505
 20
-296.8272646898529
 30
0.0
 11
-148.3352897506046
 21
-295.5184891796478
 31
0.0
  0
LINE
  5
465
102
{ACAD_REACTORS
330
549
330
54A
102
}
330
71
100
AcDbEntity
  8
0
  6
Continuous
 62
     2
100
AcDbLine
 10
-145.9019926381839
 20
-295.5184891796478
 30
0.0
 11
-147.0947853403505
 21
-295.5184891796478
 31
0.0
  0
LINE
  5
466
102
{ACAD_REACTORS
330
549
330
54A
102
}
330
71
100
AcDbEntity
  8
0
  6
Continuous
 62
     2
100
AcDbLine
 10
-145.9019926381839
 20
-298.5722987034589
 30
0.0
 11
-145.9019926381839
 21
-295.5184891796478
 31
0.0
  0
LINE
  5
467
102
{ACAD_REACTORS
330
549
330
54A
102
}
330
71
100
AcDbEntity
  8
0
  6
Continuous
 62
     2
100
AcDbLine
 10
-147.0947853403505
 20
-298.5722987034589
 30
0.0
 11
-145.9019926381839
 21
-298.5722987034589
 31
0.0
  0
LINE
  5
468
102
{ACAD_REACTORS
330
549
330
54A
102
}
330
71
100
AcDbEntity
  8
0
  6
Continuous
 62
     2
100
AcDbLine
 10
-148.3352897506046
 20
-297.2635231932542
 30
0.0
 11
-147.0947853403505
 21
-298.5722987034589
 31
0.0
  0
LINE
  5
469
102
{ACAD_REACTORS
330
54B
330
54C
102
}
330
71
100
AcDbEntity
  8
0
  6
Continuous
 62
     2
100
AcDbLine
 10
-152.3432241607702
 20
-300.1864551660273
 30
0.0
 11
-153.5837285710232
 21
-298.8776796558221
 31
0.0
  0
LINE
  5
46A
102
{ACAD_REACTORS
330
54B
330
54C
102
}
330
71
100
AcDbEntity
  8
0
  6
Continuous
 62
     2
100
AcDbLine
 10
-152.3432241607702
 20
-298.8776796558221
 30
0.0
 11
-152.3432241607702
 21
-300.1864551660273
 31
0.0
  0
LINE
  5
46B
102
{ACAD_REACTORS
330
54B
330
54C
102
}
330
71
100
AcDbEntity
  8
0
  6
Continuous
 62
     2
100
AcDbLine
 10
-151.1504314586038
 20
-298.8776796558221
 30
0.0
 11
-152.3432241607702
 21
-298.8776796558221
 31
0.0
  0
LINE
  5
46C
102
{ACAD_REACTORS
330
54B
330
54C
102
}
330
71
100
AcDbEntity
  8
0
  6
Continuous
 62
     2
100
AcDbLine
 10
-151.1504314586038
 20
-301.9314891796332
 30
0.0
 11
-151.1504314586038
 21
-298.8776796558221
 31
0.0
  0
LINE
  5
46D
102
{ACAD_REACTORS
330
54B
330
54C
102
}
330
71
100
AcDbEntity
  8
0
  6
Continuous
 62
     2
100
AcDbLine
 10
-153.5837285710232
 20
-300.6227136694287
 30
0.0
 11
-152.3432241607702
 21
-301.9314891796332
 31
0.0
  0
LINE
  5
46E
102
{ACAD_REACTORS
330
54B
330
54C
102
}
330
71
100
AcDbEntity
  8
0
  6
Continuous
 62
     2
100
AcDbLine
 10
-153.5837285710232
 20
-301.9314891796332
 30
0.0
 11
-153.5837285710232
 21
-300.6227136694287
 31
0.0
  0
LINE
  5
46F
102
{ACAD_REACTORS
330
53B
330
53C
102
}
330
71
100
AcDbEntity
  8
0
  6
Continuous
 62
     2
100
AcDbLine
 10
-151.1025688196316
 20
-296.2165027850907
 30
0.0
 11
-149.766640993204
 21
-296.2165027850907
 31
0.0
  0
LINE
  5
470
102
{ACAD_REACTORS
330
53B
330
53C
102
}
330
71
100
AcDbEntity
  8
0
  6
Continuous
 62
     2
100
AcDbLine
 10
-151.1025688196316
 20
-297.8742850980165
 30
0.0
 11
-151.1025688196316
 21
-297.3944007442748
 31
0.0
  0
LINE
  5
471
102
{ACAD_REACTORS
330
53B
330
53C
102
}
330
71
100
AcDbEntity
  8
0
  6
Continuous
 62
     2
100
AcDbLine
 10
-149.766640993204
 20
-297.8742850980165
 30
0.0
 11
-151.1025688196316
 21
-297.8742850980165
 31
0.0
  0
LINE
  5
472
102
{ACAD_REACTORS
330
53B
330
53C
102
}
330
71
100
AcDbEntity
  8
0
  6
Continuous
 62
     2
100
AcDbLine
 10
-149.766640993204
 20
-298.5722987034589
 30
0.0
 11
-149.766640993204
 21
-297.8742850980165
 31
0.0
  0
LINE
  5
473
102
{ACAD_REACTORS
330
53B
330
53C
102
}
330
71
100
AcDbEntity
  8
0
  6
Continuous
 62
     2
100
AcDbLine
 10
-152.9169607169849
 20
-298.5722987034589
 30
0.0
 11
-149.766640993204
 21
-298.5722987034589
 31
0.0
  0
LINE
  5
474
102
{ACAD_REACTORS
330
53B
330
53C
102
}
330
71
100
AcDbEntity
  8
0
  6
Continuous
 62
     2
100
AcDbLine
 10
-152.9169607169849
 20
-295.5184891796478
 30
0.0
 11
-149.766640993204
 21
-295.5184891796478
 31
0.0
  0
LINE
  5
475
102
{ACAD_REACTORS
330
53B
330
53C
102
}
330
71
100
AcDbEntity
  8
0
  6
Continuous
 62
     2
100
AcDbLine
 10
-149.766640993204
 20
-296.2165027850907
 30
0.0
 11
-149.766640993204
 21
-295.5184891796478
 31
0.0
  0
LINE
  5
476
102
{ACAD_REACTORS
330
54D
330
54E
102
}
330
71
100
AcDbEntity
  8
0
  6
Continuous
 62
     2
100
AcDbLine
 10
-155.778316212125
 20
-296.5873225129824
 30
0.0
 11
-155.778316212125
 21
-295.5184891796478
 31
0.0
  0
LINE
  5
477
102
{ACAD_REACTORS
330
54D
330
54E
102
}
330
71
100
AcDbEntity
  8
0
  6
Continuous
 62
     2
100
AcDbLine
 10
-155.778316212125
 20
-295.5184891796478
 30
0.0
 11
-154.5855235099585
 21
-295.5184891796478
 31
0.0
  0
LINE
  5
478
102
{ACAD_REACTORS
330
54D
330
54E
102
}
330
71
100
AcDbEntity
  8
0
  6
Continuous
 62
     2
100
AcDbLine
 10
-155.778316212125
 20
-297.4380265946152
 30
0.0
 11
-156.8279737900324
 21
-297.4380265946152
 31
0.0
  0
LINE
  5
479
102
{ACAD_REACTORS
330
54D
330
54E
102
}
330
71
100
AcDbEntity
  8
0
  6
Continuous
 62
     2
100
AcDbLine
 10
-156.8279737900324
 20
-297.4380265946152
 30
0.0
 11
-156.8279737900324
 21
-298.5722987034589
 31
0.0
  0
LINE
  5
47A
102
{ACAD_REACTORS
330
54D
330
54E
102
}
330
71
100
AcDbEntity
  8
0
  6
Continuous
 62
     2
100
AcDbLine
 10
-158.020766492199
 20
-295.5184891796478
 30
0.0
 11
-158.020766492199
 21
-298.5722987034589
 31
0.0
  0
LINE
  5
47B
102
{ACAD_REACTORS
330
53F
330
540
102
}
330
71
100
AcDbEntity
  8
0
  6
Continuous
 62
     2
100
AcDbLine
 10
-159.9769465237527
 20
-296.8873226744301
 30
0.0
 11
-159.9769465237527
 21
-296.1815950250878
 31
0.0
  0
LINE
  5
47C
102
{ACAD_REACTORS
330
53F
330
540
102
}
330
71
100
AcDbEntity
  8
0
  6
Continuous
 62
     2
100
AcDbLine
 10
-161.2174509340067
 20
-298.5722987034589
 30
0.0
 11
-159.9769465237527
 21
-298.5722987034589
 31
0.0
  0
LINE
  5
47D
102
{ACAD_REACTORS
330
53F
330
540
102
}
330
71
100
AcDbEntity
  8
0
  6
Continuous
 62
     2
100
AcDbLine
 10
-159.9769465237527
 20
-298.5722987034589
 30
0.0
 11
-159.9769465237527
 21
-297.6292204623152
 31
0.0
  0
LINE
  5
47E
102
{ACAD_REACTORS
330
539
330
53A
102
}
330
71
100
AcDbEntity
  8
0
  6
Continuous
 62
     2
100
AcDbLine
 10
-165.5223967832182
 20
-301.2189336240763
 30
0.0
 11
-166.9982300442278
 21
-301.2189336240763
 31
0.0
  0
LINE
  5
47F
102
{ACAD_REACTORS
330
539
330
53A
102
}
330
71
100
AcDbEntity
  8
0
  6
Continuous
 62
     2
100
AcDbLine
 10
-168.0163693363571
 20
-295.9427337950498
 30
0.0
 11
-168.0163693363571
 21
-301.50724456425
 31
0.0
  0
LINE
  5
480
102
{ACAD_REACTORS
330
539
330
53A
102
}
330
71
100
AcDbEntity
  8
0
  6
Continuous
 62
     2
100
AcDbLine
 10
-167.5921247209743
 20
-295.5184891796659
 30
0.0
 11
-162.1188126302574
 21
-295.5184891796659
 31
0.0
  0
LINE
  5
481
102
{ACAD_REACTORS
330
539
330
53A
102
}
330
71
100
AcDbEntity
  8
0
  6
Continuous
 62
     2
100
AcDbLine
 10
-161.6945680148735
 20
-295.9427337950498
 30
0.0
 11
-161.6945680148735
 21
-301.50724456425
 31
0.0
  0
LINE
  5
482
102
{ACAD_REACTORS
330
539
330
53A
102
}
330
71
100
AcDbEntity
  8
0
  6
Continuous
 62
     2
100
AcDbLine
 10
-162.1188126302574
 20
-301.9314891796332
 30
0.0
 11
-167.5921247209743
 21
-301.9314891796332
 31
0.0
  0
LINE
  5
483
102
{ACAD_REACTORS
330
539
330
53A
102
}
330
71
100
AcDbEntity
  8
0
  6
Continuous
 62
     2
100
AcDbLine
 10
-165.2066798601416
 20
-300.9032167009996
 30
0.0
 11
-165.2066798601416
 21
-299.372445769468
 31
0.0
  0
LINE
  5
484
102
{ACAD_REACTORS
330
539
330
53A
102
}
330
71
100
AcDbEntity
  8
0
  6
Continuous
 62
     2
100
AcDbLine
 10
-165.2066798601416
 20
-297.1507862773431
 30
0.0
 11
-165.2066798601416
 21
-296.5467616582825
 31
0.0
  0
LINE
  5
485
102
{ACAD_REACTORS
330
539
330
53A
102
}
330
71
100
AcDbEntity
  8
0
  6
Continuous
 62
     2
100
AcDbLine
 10
-166.9982300442278
 20
-296.2310447352064
 30
0.0
 11
-165.5223967832182
 21
-296.2310447352064
 31
0.0
  0
LINE
  5
486
102
{ACAD_REACTORS
330
539
330
53A
102
}
330
71
100
AcDbEntity
  8
0
  6
Continuous
 62
     2
100
AcDbLine
 10
-167.3139469673034
 20
-296.5467616582825
 30
0.0
 11
-167.3139469673034
 21
-300.9032167009996
 31
0.0
  0
LINE
  5
487
102
{ACAD_REACTORS
330
53F
330
540
102
}
330
71
100
AcDbEntity
  8
0
  6
Continuous
 62
     2
100
AcDbLine
 10
-159.9769465237527
 20
-297.6292204623152
 30
0.0
 11
-159.2181789359723
 21
-297.6292204623152
 31
0.0
  0
LINE
  5
488
102
{ACAD_REACTORS
330
53F
330
540
102
}
330
71
100
AcDbEntity
  8
0
  6
Continuous
 62
     2
100
AcDbLine
 10
-161.2174509340067
 20
-295.5184891796478
 30
0.0
 11
-159.2181789359723
 21
-295.5184891796478
 31
0.0
  0
LINE
  5
489
102
{ACAD_REACTORS
330
53F
330
540
102
}
330
71
100
AcDbEntity
  8
0
  6
Continuous
 62
     2
100
AcDbLine
 10
-161.2174509340067
 20
-295.5184891796478
 30
0.0
 11
-161.2174509340067
 21
-298.5722987034589
 31
0.0
  0
LINE
  5
48A
102
{ACAD_REACTORS
330
53F
330
540
102
}
330
71
100
AcDbEntity
  8
0
  6
Continuous
 62
     2
100
AcDbLine
 10
-159.9769465237527
 20
-296.8873226744301
 30
0.0
 11
-159.6596514622107
 21
-296.8873226744301
 31
0.0
  0
LINE
  5
48B
102
{ACAD_REACTORS
330
53F
330
540
102
}
330
71
100
AcDbEntity
  8
0
  6
Continuous
 62
     2
100
AcDbLine
 10
-159.9769465237527
 20
-296.1815950250878
 30
0.0
 11
-159.6596514622107
 21
-296.1815950250878
 31
0.0
  0
LINE
  5
48C
102
{ACAD_REACTORS
330
54D
330
54E
102
}
330
71
100
AcDbEntity
  8
0
  6
Continuous
 62
     2
100
AcDbLine
 10
-156.8279737900324
 20
-296.5873225129824
 30
0.0
 11
-155.778316212125
 21
-296.5873225129824
 31
0.0
  0
LINE
  5
48D
102
{ACAD_REACTORS
330
54D
330
54E
102
}
330
71
100
AcDbEntity
  8
0
  6
Continuous
 62
     2
100
AcDbLine
 10
-156.8279737900324
 20
-295.5184891796478
 30
0.0
 11
-156.8279737900324
 21
-296.5873225129824
 31
0.0
  0
LINE
  5
48E
102
{ACAD_REACTORS
330
54D
330
54E
102
}
330
71
100
AcDbEntity
  8
0
  6
Continuous
 62
     2
100
AcDbLine
 10
-158.020766492199
 20
-295.5184891796478
 30
0.0
 11
-156.8279737900324
 21
-295.5184891796478
 31
0.0
  0
LINE
  5
48F
102
{ACAD_REACTORS
330
54D
330
54E
102
}
330
71
100
AcDbEntity
  8
0
  6
Continuous
 62
     2
100
AcDbLine
 10
-156.8279737900324
 20
-298.5722987034589
 30
0.0
 11
-158.020766492199
 21
-298.5722987034589
 31
0.0
  0
LINE
  5
490
102
{ACAD_REACTORS
330
54D
330
54E
102
}
330
71
100
AcDbEntity
  8
0
  6
Continuous
 62
     2
100
AcDbLine
 10
-155.778316212125
 20
-298.5722987034589
 30
0.0
 11
-155.778316212125
 21
-297.4380265946152
 31
0.0
  0
LINE
  5
491
102
{ACAD_REACTORS
330
54D
330
54E
102
}
330
71
100
AcDbEntity
  8
0
  6
Continuous
 62
     2
100
AcDbLine
 10
-154.5855235099585
 20
-298.5722987034589
 30
0.0
 11
-155.778316212125
 21
-298.5722987034589
 31
0.0
  0
LINE
  5
492
102
{ACAD_REACTORS
330
54D
330
54E
102
}
330
71
100
AcDbEntity
  8
0
  6
Continuous
 62
     2
100
AcDbLine
 10
-154.5855235099585
 20
-295.5184891796478
 30
0.0
 11
-154.5855235099585
 21
-298.5722987034589
 31
0.0
  0
LINE
  5
493
102
{ACAD_REACTORS
330
53B
330
53C
102
}
330
71
100
AcDbEntity
  8
0
  6
Continuous
 62
     2
100
AcDbLine
 10
-151.1025688196316
 20
-297.3944007442748
 30
0.0
 11
-149.766640993204
 21
-297.3944007442748
 31
0.0
  0
LINE
  5
494
102
{ACAD_REACTORS
330
53B
330
53C
102
}
330
71
100
AcDbEntity
  8
0
  6
Continuous
 62
     2
100
AcDbLine
 10
-149.766640993204
 20
-297.3944007442748
 30
0.0
 11
-149.766640993204
 21
-296.6963871388324
 31
0.0
  0
LINE
  5
495
102
{ACAD_REACTORS
330
53B
330
53C
102
}
330
71
100
AcDbEntity
  8
0
  6
Continuous
 62
     2
100
AcDbLine
 10
-149.766640993204
 20
-296.6963871388324
 30
0.0
 11
-151.1025688196316
 21
-296.6963871388324
 31
0.0
  0
LINE
  5
496
102
{ACAD_REACTORS
330
53B
330
53C
102
}
330
71
100
AcDbEntity
  8
0
  6
Continuous
 62
     2
100
AcDbLine
 10
-151.1025688196316
 20
-296.6963871388324
 30
0.0
 11
-151.1025688196316
 21
-296.2165027850907
 31
0.0
  0
LINE
  5
497
102
{ACAD_REACTORS
330
54B
330
54C
102
}
330
71
100
AcDbEntity
  8
0
  6
Continuous
 62
     2
100
AcDbLine
 10
-154.7765212731907
 20
-301.9314891796332
 30
0.0
 11
-153.5837285710232
 21
-301.9314891796332
 31
0.0
  0
LINE
  5
498
102
{ACAD_REACTORS
330
54B
330
54C
102
}
330
71
100
AcDbEntity
  8
0
  6
Continuous
 62
     2
100
AcDbLine
 10
-152.3432241607702
 20
-301.9314891796332
 30
0.0
 11
-151.1504314586038
 21
-301.9314891796332
 31
0.0
  0
LINE
  5
499
102
{ACAD_REACTORS
330
54B
330
54C
102
}
330
71
100
AcDbEntity
  8
0
  6
Continuous
 62
     2
100
AcDbLine
 10
-153.5837285710232
 20
-298.8776796558221
 30
0.0
 11
-154.7765212731907
 21
-298.8776796558221
 31
0.0
  0
LINE
  5
49A
102
{ACAD_REACTORS
330
54B
330
54C
102
}
330
71
100
AcDbEntity
  8
0
  6
Continuous
 62
     2
100
AcDbLine
 10
-154.7765212731907
 20
-298.8776796558221
 30
0.0
 11
-154.7765212731907
 21
-301.9314891796332
 31
0.0
  0
LINE
  5
49B
102
{ACAD_REACTORS
330
549
330
54A
102
}
330
71
100
AcDbEntity
  8
0
  6
Continuous
 62
     2
100
AcDbLine
 10
-147.0947853403505
 20
-295.5184891796478
 30
0.0
 11
-147.0947853403505
 21
-296.8272646898529
 31
0.0
  0
LINE
  5
49C
102
{ACAD_REACTORS
330
549
330
54A
102
}
330
71
100
AcDbEntity
  8
0
  6
Continuous
 62
     2
100
AcDbLine
 10
-148.3352897506046
 20
-295.5184891796478
 30
0.0
 11
-149.528082452771
 21
-295.5184891796478
 31
0.0
  0
LINE
  5
49D
102
{ACAD_REACTORS
330
549
330
54A
102
}
330
71
100
AcDbEntity
  8
0
  6
Continuous
 62
     2
100
AcDbLine
 10
-149.528082452771
 20
-295.5184891796478
 30
0.0
 11
-149.528082452771
 21
-298.5722987034589
 31
0.0
  0
LINE
  5
49E
102
{ACAD_REACTORS
330
549
330
54A
102
}
330
71
100
AcDbEntity
  8
0
  6
Continuous
 62
     2
100
AcDbLine
 10
-148.3352897506046
 20
-298.5722987034589
 30
0.0
 11
-148.3352897506046
 21
-297.2635231932542
 31
0.0
  0
LINE
  5
49F
102
{ACAD_REACTORS
330
547
330
548
102
}
330
71
100
AcDbEntity
  8
0
  6
Continuous
 62
     2
100
AcDbLine
 10
-149.0034045947026
 20
-301.9314891796332
 30
0.0
 11
-149.0034045947026
 21
-299.6629449619458
 31
0.0
  0
LINE
  5
4A0
102
{ACAD_REACTORS
330
547
330
548
102
}
330
71
100
AcDbEntity
  8
0
  6
Continuous
 62
     2
100
AcDbLine
 10
-149.0034045947026
 20
-299.6629449619458
 30
0.0
 11
-148.19230555723
 21
-299.6629449619458
 31
0.0
  0
LINE
  5
4A1
102
{ACAD_REACTORS
330
547
330
548
102
}
330
71
100
AcDbEntity
  8
0
  6
Continuous
 62
     2
100
AcDbLine
 10
-148.19230555723
 20
-299.6629449619458
 30
0.0
 11
-148.19230555723
 21
-298.8776796558221
 31
0.0
  0
LINE
  5
4A2
102
{ACAD_REACTORS
330
547
330
548
102
}
330
71
100
AcDbEntity
  8
0
  6
Continuous
 62
     2
100
AcDbLine
 10
-148.19230555723
 20
-298.8776796558221
 30
0.0
 11
-151.0072963343437
 21
-298.8776796558221
 31
0.0
  0
LINE
  5
4A3
102
{ACAD_REACTORS
330
547
330
548
102
}
330
71
100
AcDbEntity
  8
0
  6
Continuous
 62
     2
100
AcDbLine
 10
-151.0072963343437
 20
-299.6629449619458
 30
0.0
 11
-150.196197296869
 21
-299.6629449619458
 31
0.0
  0
LINE
  5
4A4
102
{ACAD_REACTORS
330
545
330
546
102
}
330
71
100
AcDbEntity
  8
0
  6
Continuous
 62
     2
100
AcDbLine
 10
-147.3977997314327
 20
-301.3905286354154
 30
0.0
 11
-146.2653581547588
 21
-301.3905286354154
 31
0.0
  0
LINE
  5
4A5
102
{ACAD_REACTORS
330
545
330
546
102
}
330
71
100
AcDbEntity
  8
0
  6
Continuous
 62
     2
100
AcDbLine
 10
-144.8133736910291
 20
-301.9314891796332
 30
0.0
 11
-146.053878101283
 21
-301.9314891796332
 31
0.0
  0
LINE
  5
4A6
102
{ACAD_REACTORS
330
545
330
546
102
}
330
71
100
AcDbEntity
  8
0
  6
Continuous
 62
     2
100
AcDbLine
 10
-147.4518311482222
 20
-298.8776796558221
 30
0.0
 11
-148.8497841951614
 21
-301.9314891796332
 31
0.0
  0
LINE
  5
4A7
102
{ACAD_REACTORS
330
545
330
546
102
}
330
71
100
AcDbEntity
  8
0
  6
Continuous
 62
     2
100
AcDbLine
 10
-147.6092797849085
 20
-301.9314891796332
 30
0.0
 11
-147.3977997314327
 21
-301.3905286354154
 31
0.0
  0
LINE
  5
4A8
102
{ACAD_REACTORS
330
545
330
546
102
}
330
71
100
AcDbEntity
  8
0
  6
Continuous
 62
     2
100
AcDbLine
 10
-147.1317441802876
 20
-300.7099653701088
 30
0.0
 11
-146.8315789430953
 21
-299.9421504041221
 31
0.0
  0
LINE
  5
4A9
102
{ACAD_REACTORS
330
543
330
544
102
}
330
71
100
AcDbEntity
  8
0
  6
Continuous
 62
     2
100
AcDbLine
 10
-145.66343409775
 20
-298.5722987034589
 30
0.0
 11
-145.66343409775
 21
-295.5184891796478
 31
0.0
  0
LINE
  5
4AA
102
{ACAD_REACTORS
330
543
330
544
102
}
330
71
100
AcDbEntity
  8
0
  6
Continuous
 62
     2
100
AcDbLine
 10
-144.4229296874971
 20
-295.5184891796478
 30
0.0
 11
-144.4229296874971
 21
-298.5722987034589
 31
0.0
  0
LINE
  5
4AB
102
{ACAD_REACTORS
330
543
330
544
102
}
330
71
100
AcDbEntity
  8
0
  6
Continuous
 62
     2
100
AcDbLine
 10
-145.66343409775
 20
-295.5184891796478
 30
0.0
 11
-144.4229296874971
 21
-295.5184891796478
 31
0.0
  0
LINE
  5
4AC
102
{ACAD_REACTORS
330
541
330
542
102
}
330
71
100
AcDbEntity
  8
0
  6
Continuous
 62
     2
100
AcDbLine
 10
-142.2043352614663
 20
-297.7845669181652
 30
0.0
 11
-141.5077443234009
 21
-298.5722987034589
 31
0.0
  0
LINE
  5
4AD
102
{ACAD_REACTORS
330
541
330
542
102
}
330
71
100
AcDbEntity
  8
0
  6
Continuous
 62
     2
100
AcDbLine
 10
-141.5077443234009
 20
-298.5722987034589
 30
0.0
 11
-140.1050201056526
 21
-298.5722987034589
 31
0.0
  0
LINE
  5
4AE
102
{ACAD_REACTORS
330
541
330
542
102
}
330
71
100
AcDbEntity
  8
0
  6
Continuous
 62
     2
100
AcDbLine
 10
-141.5029731525929
 20
-296.991439709684
 30
0.0
 11
-140.1050201056526
 21
-298.5722987034589
 31
0.0
  0
LINE
  5
4AF
102
{ACAD_REACTORS
330
541
330
542
102
}
330
71
100
AcDbEntity
  8
0
  6
Continuous
 62
     2
100
AcDbLine
 10
-141.5029731525929
 20
-296.991439709684
 30
0.0
 11
-140.2004435218263
 21
-295.5184891796478
 31
0.0
  0
LINE
  5
4B0
102
{ACAD_REACTORS
330
541
330
542
102
}
330
71
100
AcDbEntity
  8
0
  6
Continuous
 62
     2
100
AcDbLine
 10
-142.2043352614663
 20
-296.1983125012033
 30
0.0
 11
-141.6031677395735
 21
-295.5184891796478
 31
0.0
  0
LINE
  5
4B1
102
{ACAD_REACTORS
330
541
330
542
102
}
330
71
100
AcDbEntity
  8
0
  6
Continuous
 62
     2
100
AcDbLine
 10
-142.8055027833582
 20
-295.5184891796478
 30
0.0
 11
-142.2043352614663
 21
-296.1983125012033
 31
0.0
  0
LINE
  5
4B2
102
{ACAD_REACTORS
330
541
330
542
102
}
330
71
100
AcDbEntity
  8
0
  6
Continuous
 62
     2
100
AcDbLine
 10
-142.8055027833582
 20
-295.5184891796478
 30
0.0
 11
-144.2082270011074
 21
-295.5184891796478
 31
0.0
  0
LINE
  5
4B3
102
{ACAD_REACTORS
330
537
330
538
102
}
330
71
100
AcDbEntity
  8
0
  6
Continuous
 62
     2
100
AcDbLine
 10
-142.1089118452937
 20
-301.9314891796332
 30
0.0
 11
-140.916119143126
 21
-301.9314891796332
 31
0.0
  0
LINE
  5
4B4
102
{ACAD_REACTORS
330
537
330
538
102
}
330
71
100
AcDbEntity
  8
0
  6
Continuous
 62
     2
100
AcDbLine
 10
-140.916119143126
 20
-301.9314891796332
 30
0.0
 11
-140.916119143126
 21
-299.6629449619458
 31
0.0
  0
LINE
  5
4B5
102
{ACAD_REACTORS
330
537
330
538
102
}
330
71
100
AcDbEntity
  8
0
  6
Continuous
 62
     2
100
AcDbLine
 10
-140.916119143126
 20
-299.6629449619458
 30
0.0
 11
-140.1050201056526
 21
-299.6629449619458
 31
0.0
  0
LINE
  5
4B6
102
{ACAD_REACTORS
330
537
330
538
102
}
330
71
100
AcDbEntity
  8
0
  6
Continuous
 62
     2
100
AcDbLine
 10
-140.1050201056526
 20
-299.6629449619458
 30
0.0
 11
-140.1050201056526
 21
-298.8776796558221
 31
0.0
  0
LINE
  5
4B7
102
{ACAD_REACTORS
330
537
330
538
102
}
330
71
100
AcDbEntity
  8
0
  6
Continuous
 62
     2
100
AcDbLine
 10
-143.4899656242812
 20
-298.8776796558227
 30
0.0
 11
-140.1050201056526
 21
-298.8776796558221
 31
0.0
  0
LINE
  5
4B8
102
{ACAD_REACTORS
330
537
330
538
102
}
330
71
100
AcDbEntity
  8
0
  6
Continuous
 62
     2
100
AcDbLine
 10
-142.1089118452937
 20
-299.6629449619458
 30
0.0
 11
-142.1089118452937
 21
-301.9314891796332
 31
0.0
  0
LINE
  5
4B9
102
{ACAD_REACTORS
330
539
330
53A
102
}
330
71
100
AcDbEntity
  8
0
  6
Continuous
 62
     2
100
AcDbLine
 10
-164.7383982807728
 20
-299.9526090300687
 30
0.0
 11
-164.7383982807728
 21
-299.3707576233736
 31
0.0
  0
LINE
  5
4BA
102
{ACAD_REACTORS
330
539
330
53A
102
}
330
71
100
AcDbEntity
  8
0
  6
Continuous
 62
     2
100
AcDbLine
 10
-164.7383982807728
 20
-297.1524744234375
 30
0.0
 11
-164.7383982807728
 21
-296.5469391349307
 31
0.0
  0
LINE
  5
4BB
330
71
100
AcDbEntity
  8
1
  6
Continuous
 62
     6
100
AcDbLine
 10
-86.20821969616969
 20
-309.2249891796495
 30
0.0
 11
-42.70821969616975
 21
-309.2249891796495
 31
0.0
  0
LINE
  5
4BC
330
71
100
AcDbEntity
  8
1
  6
Continuous
 62
     6
100
AcDbLine
 10
-136.2082196961697
 20
-309.2249891796495
 30
0.0
 11
-154.0530242229197
 21
-309.2249891796495
 31
0.0
  0
LINE
  5
4BD
330
71
100
AcDbEntity
  8
1
  6
Continuous
 62
     6
100
AcDbLine
 10
-172.2530242229196
 20
-292.2249891796496
 30
0.0
 11
-135.8530242229197
 21
-292.2249891796496
 31
0.0
  0
LINE
  5
4BE
330
71
100
AcDbEntity
  8
1
  6
Continuous
 62
     6
100
AcDbLine
 10
-42.70821969616975
 20
-309.2249891796495
 30
0.0
 11
-42.7082196961684
 21
-300.7249891796496
 31
0.0
  0
LINE
  5
4BF
330
71
100
AcDbEntity
  8
1
  6
Continuous
 62
     6
100
AcDbLine
 10
-135.8530242229197
 20
-309.2249891796496
 30
0.0
 11
-86.20821969616969
 21
-309.2249891796495
 31
0.0
  0
LINE
  5
4C0
330
71
100
AcDbEntity
  8
1
  6
Continuous
 62
     7
100
AcDbLine
 10
-172.2530242229196
 20
-292.2249891796496
 30
0.0
 11
-172.2530242229196
 21
-304.9749891796496
 31
0.0
  0
LINE
  5
4C1
330
71
100
AcDbEntity
  8
1
  6
Continuous
 62
     7
100
AcDbLine
 10
-135.8530242229197
 20
-292.2249891796496
 30
0.0
 11
-135.8530242229197
 21
-304.9749891796495
 31
0.0
  0
LINE
  5
4C2
330
71
100
AcDbEntity
  8
1
  6
Continuous
 62
     6
100
AcDbLine
 10
-135.8530242229197
 20
-309.2249891796496
 30
0.0
 11
-136.2082196961697
 21
-309.2249891796495
 31
0.0
  0
LINE
  5
4C3
330
71
100
AcDbEntity
  8
1
  6
Continuous
 62
     6
100
AcDbLine
 10
-42.7082196961679
 20
-292.2249891796496
 30
0.0
 11
-42.7082196961684
 21
-300.7249891796496
 31
0.0
  0
LINE
  5
4C4
330
71
100
AcDbEntity
  8
1
  6
Continuous
 62
     2
100
AcDbLine
 10
-168.0163693363571
 20
-286.8499891796497
 30
0.0
 11
-163.0163693363571
 21
-285.5999891796497
 31
0.0
  0
LINE
  5
4C5
330
71
100
AcDbEntity
  8
1
  6
Continuous
 62
     2
100
AcDbLine
 10
-168.0163693363571
 20
-289.3499891796497
 30
0.0
 11
-168.0163693363571
 21
-286.8499891796497
 31
0.0
  0
LINE
  5
4C6
330
71
100
AcDbEntity
  8
1
  6
Continuous
 62
     2
100
AcDbLine
 10
-163.0163693363571
 20
-290.5999891796497
 30
0.0
 11
-168.0163693363571
 21
-289.3499891796497
 31
0.0
  0
LINE
  5
4C7
330
71
100
AcDbEntity
  8
1
  6
Continuous
 62
     2
100
AcDbLine
 10
-163.0163693363571
 20
-285.5999891796497
 30
0.0
 11
-163.0163693363571
 21
-290.5999891796497
 31
0.0
  0
LINE
  5
4C8
330
71
100
AcDbEntity
  8
1
  6
Continuous
 62
     7
100
AcDbLine
 10
-172.2530242229196
 20
-304.9749891796496
 30
0.0
 11
-154.0530242229197
 21
-304.9749891796495
 31
0.0
  0
LINE
  5
4C9
330
71
100
AcDbEntity
  8
1
  6
Continuous
 62
     7
100
AcDbLine
 10
-172.2530242229196
 20
-304.9749891796496
 30
0.0
 11
-172.2530242229196
 21
-309.2249891796496
 31
0.0
  0
LINE
  5
4CA
330
71
100
AcDbEntity
  8
1
  6
Continuous
 62
     7
100
AcDbLine
 10
-135.8530242229197
 20
-304.9749891796495
 30
0.0
 11
-135.8530242229197
 21
-309.2249891796496
 31
0.0
  0
LINE
  5
4CB
330
71
100
AcDbEntity
  8
1
  6
Continuous
 62
     7
100
AcDbLine
 10
-154.0530242229197
 20
-304.9749891796495
 30
0.0
 11
-154.0530242229197
 21
-309.2249891796495
 31
0.0
  0
LINE
  5
4CC
330
71
100
AcDbEntity
  8
1
  6
Continuous
 62
     6
100
AcDbLine
 10
-154.0530242229197
 20
-309.2249891796495
 30
0.0
 11
-172.2530242229196
 21
-309.2249891796496
 31
0.0
  0
LINE
  5
4CD
330
71
100
AcDbEntity
  8
1
  6
Continuous
 62
     7
100
AcDbLine
 10
-154.0530242229197
 20
-304.9749891796495
 30
0.0
 11
-135.8530242229197
 21
-304.9749891796495
 31
0.0
  0
LINE
  5
4CE
330
71
100
AcDbEntity
  8
1
  6
Continuous
 62
     6
100
AcDbLine
 10
-172.2530242229196
 20
-283.7249891796496
 30
0.0
 11
-42.7082196961679
 21
-283.7249891796496
 31
0.0
  0
LINE
  5
4CF
330
71
100
AcDbEntity
  8
1
  6
PHANTOM
 62
     2
100
AcDbLine
 10
-156.7663693363571
 20
-288.0999891796497
 30
0.0
 11
-162.2663693363571
 21
-288.0999891796497
 31
0.0
  0
LINE
  5
4D0
330
71
100
AcDbEntity
  8
1
  6
PHANTOM
 62
     2
100
AcDbLine
 10
-159.5163693363571
 20
-285.3499891796496
 30
0.0
 11
-159.5163693363571
 21
-290.8499891796496
 31
0.0
  0
LINE
  5
4D1
330
71
100
AcDbEntity
  8
1
  6
DOT_CENTER
 62
     2
100
AcDbLine
 10
-168.2663693363571
 20
-288.0999891796497
 30
0.0
 11
-162.7663693363571
 21
-288.0999891796497
 31
0.0
  0
ARC
  5
4D2
102
{ACAD_REACTORS
330
53D
330
53E
102
}
330
71
100
AcDbEntity
  8
0
  6
Continuous
 62
     2
100
AcDbCircle
 10
-156.8613762239596
 20
-300.404584417728
 30
0.0
 40
0.7717997786795351
100
AcDbArc
 50
321.8795802028432
 51
38.1204197971668
  0
ARC
  5
4D3
102
{ACAD_REACTORS
330
53D
330
53E
102
}
330
71
100
AcDbEntity
  8
0
  6
Continuous
 62
     2
100
AcDbCircle
 10
-156.6616361876132
 20
-300.5613155958479
 30
0.0
 40
0.5179085730138424
100
AcDbArc
 50
218.1204197971879
 51
321.8795802027908
  0
ARC
  5
4D4
102
{ACAD_REACTORS
330
53D
330
53E
102
}
330
71
100
AcDbEntity
  8
0
  6
Continuous
 62
     2
100
AcDbCircle
 10
-156.4618961512672
 20
-300.404584417728
 30
0.0
 40
0.771799778679551
100
AcDbArc
 50
141.879580202828
 51
218.120419797162
  0
ARC
  5
4D5
102
{ACAD_REACTORS
330
53D
330
53E
102
}
330
71
100
AcDbEntity
  8
0
  6
Continuous
 62
     2
100
AcDbCircle
 10
-156.6616361876132
 20
-300.2478532396075
 30
0.0
 40
0.5179085730132806
100
AcDbArc
 50
38.12041979716469
 51
141.8795802028567
  0
ARC
  5
4D6
102
{ACAD_REACTORS
330
535
330
536
102
}
330
71
100
AcDbEntity
  8
0
  6
Continuous
 62
     2
100
AcDbCircle
 10
-159.7236503231772
 20
-301.8150507831361
 30
0.0
 40
2.227384008973465
100
AcDbArc
 50
58.06909105003707
 51
71.55192388186676
  0
ARC
  5
4D7
102
{ACAD_REACTORS
330
535
330
536
102
}
330
71
100
AcDbEntity
  8
0
  6
Continuous
 62
     2
100
AcDbCircle
 10
-159.4619226222184
 20
-300.1995129883889
 30
0.0
 40
0.5115800601948293
100
AcDbArc
 50
113.3722778881945
 51
151.4785267423156
  0
ARC
  5
4D8
102
{ACAD_REACTORS
330
535
330
536
102
}
330
71
100
AcDbEntity
  8
0
  6
Continuous
 62
     2
100
AcDbCircle
 10
-159.084565364138
 20
-300.404584417728
 30
0.0
 40
0.9410597353333294
100
AcDbArc
 50
151.4785267422693
 51
208.5214732576972
  0
ARC
  5
4D9
102
{ACAD_REACTORS
330
535
330
536
102
}
330
71
100
AcDbEntity
  8
0
  6
Continuous
 62
     2
100
AcDbCircle
 10
-159.88152319827
 20
-297.0919034724715
 30
0.0
 40
4.852596863498272
100
AcDbArc
 50
275.1581447696238
 51
285.9799912583526
  0
ARC
  5
4DA
102
{ACAD_REACTORS
330
535
330
536
102
}
330
71
100
AcDbEntity
  8
0
  6
Continuous
 62
     2
100
AcDbCircle
 10
-159.5926671035341
 20
-300.2917940556931
 30
0.0
 40
1.639695123939437
100
AcDbArc
 50
195.0618917770922
 51
275.1581447696363
  0
ARC
  5
4DB
102
{ACAD_REACTORS
330
535
330
536
102
}
330
71
100
AcDbEntity
  8
0
  6
Continuous
 62
     2
100
AcDbCircle
 10
-160.0117949469969
 20
-300.404584417728
 30
0.0
 40
1.205656168390971
100
AcDbArc
 50
164.9381082228768
 51
195.0618917770945
  0
ARC
  5
4DC
102
{ACAD_REACTORS
330
535
330
536
102
}
330
71
100
AcDbEntity
  8
0
  6
Continuous
 62
     2
100
AcDbCircle
 10
-159.5926671035341
 20
-300.5173747797628
 30
0.0
 40
1.639695123940499
100
AcDbArc
 50
84.84185523036533
 51
164.9381082228905
  0
ARC
  5
4DD
102
{ACAD_REACTORS
330
539
330
53A
102
}
330
71
100
AcDbEntity
  8
0
  6
Continuous
 62
     2
100
AcDbCircle
 10
-164.422681357696
 20
-299.3707576233736
 30
0.0
 40
0.3157169230765328
100
AcDbArc
 50
115.3740086783519
 51
180.0
  0
ARC
  5
4DE
102
{ACAD_REACTORS
330
539
330
53A
102
}
330
71
100
AcDbEntity
  8
0
  6
Continuous
 62
     2
100
AcDbCircle
 10
-164.422681357696
 20
-297.1524744234375
 30
0.0
 40
0.315716923076792
100
AcDbArc
 50
180.0
 51
244.6259913216349
  0
ARC
  5
4DF
102
{ACAD_REACTORS
330
539
330
53A
102
}
330
71
100
AcDbEntity
  8
0
  6
Continuous
 62
     2
100
AcDbCircle
 10
-164.417065222386
 20
-298.2497740824997
 30
0.0
 40
2.018561131933266
100
AcDbArc
 50
269.8110329575827
 51
90.18896704241737
  0
ARC
  5
4E0
102
{ACAD_REACTORS
330
539
330
53A
102
}
330
71
100
AcDbEntity
  8
0
  6
Continuous
 62
     2
100
AcDbCircle
 10
-164.422681357696
 20
-299.9526090300687
 30
0.0
 40
0.315716923076792
100
AcDbArc
 50
180.0
 51
269.8110329574335
  0
ARC
  5
4E1
102
{ACAD_REACTORS
330
537
330
538
102
}
330
71
100
AcDbEntity
  8
0
  6
Continuous
 62
     2
100
AcDbCircle
 10
-143.3592211429655
 20
-300.1995129883889
 30
0.0
 40
0.5115800601944048
100
AcDbArc
 50
109.3371432194823
 51
151.4785267424182
  0
ARC
  5
4E2
102
{ACAD_REACTORS
330
537
330
538
102
}
330
71
100
AcDbEntity
  8
0
  6
Continuous
 62
     2
100
AcDbCircle
 10
-143.3592211429655
 20
-300.6096558470665
 30
0.0
 40
0.5115800601959967
100
AcDbArc
 50
208.5214732576881
 51
246.6277221118399
  0
ARC
  5
4E3
102
{ACAD_REACTORS
330
537
330
538
102
}
330
71
100
AcDbEntity
  8
0
  6
Continuous
 62
     2
100
AcDbCircle
 10
-143.9090934677429
 20
-300.404584417728
 30
0.0
 40
1.205656168392975
100
AcDbArc
 50
164.9381082229024
 51
195.0618917770924
  0
ARC
  5
4E4
102
{ACAD_REACTORS
330
537
330
538
102
}
330
71
100
AcDbEntity
  8
0
  6
Continuous
 62
     2
100
AcDbCircle
 10
-143.4899656242812
 20
-300.5173747797628
 30
0.0
 40
1.639695123940101
100
AcDbArc
 50
90.0
 51
164.9381082228993
  0
ARC
  5
4E5
102
{ACAD_REACTORS
330
53B
330
53C
102
}
330
71
100
AcDbEntity
  8
0
  6
Continuous
 62
     2
100
AcDbCircle
 10
-152.9169607169849
 20
-297.0453939415536
 30
0.0
 40
1.526904761905769
100
AcDbArc
 50
90.0
 51
270.0
  0
ARC
  5
4E6
102
{ACAD_REACTORS
330
53F
330
540
102
}
330
71
100
AcDbEntity
  8
0
  6
Continuous
 62
     2
100
AcDbCircle
 10
-159.6596514622107
 20
-296.534458849759
 30
0.0
 40
0.3528638246710898
100
AcDbArc
 50
270.0
 51
90.0
  0
ARC
  5
4E7
102
{ACAD_REACTORS
330
539
330
53A
102
}
330
71
100
AcDbEntity
  8
0
  6
Continuous
 62
     2
100
AcDbCircle
 10
-166.9982300442278
 20
-296.5467616582825
 30
0.0
 40
0.3157169230760815
100
AcDbArc
 50
90.0
 51
180.0
  0
ARC
  5
4E8
102
{ACAD_REACTORS
330
539
330
53A
102
}
330
71
100
AcDbEntity
  8
0
  6
Continuous
 62
     2
100
AcDbCircle
 10
-164.9998123356432
 20
-298.2616160234053
 30
0.0
 40
0.9118975235576433
100
AcDbArc
 50
115.1944106485195
 51
244.8055893514911
  0
ARC
  5
4E9
102
{ACAD_REACTORS
330
539
330
53A
102
}
330
71
100
AcDbEntity
  8
0
  6
Continuous
 62
     2
100
AcDbCircle
 10
-165.5223967832182
 20
-299.372445769468
 30
0.0
 40
0.315716923076593
100
AcDbArc
 50
0.0
 51
64.805589351446
  0
ARC
  5
4EA
102
{ACAD_REACTORS
330
539
330
53A
102
}
330
71
100
AcDbEntity
  8
0
  6
Continuous
 62
     2
100
AcDbCircle
 10
-167.5921247209743
 20
-301.50724456425
 30
0.0
 40
0.4242446153827757
100
AcDbArc
 50
180.0
 51
270.0
  0
ARC
  5
4EB
102
{ACAD_REACTORS
330
53B
330
53C
102
}
330
71
100
AcDbEntity
  8
0
  6
Continuous
 62
     2
100
AcDbCircle
 10
-152.7006887068197
 20
-296.8886627634331
 30
0.0
 40
0.5179085730133669
100
AcDbArc
 50
38.12041979714121
 51
141.8795802028666
  0
ARC
  5
4EC
102
{ACAD_REACTORS
330
53B
330
53C
102
}
330
71
100
AcDbEntity
  8
0
  6
Continuous
 62
     2
100
AcDbCircle
 10
-152.5009486704735
 20
-297.0453939415536
 30
0.0
 40
0.7717997786796245
100
AcDbArc
 50
141.8795802028484
 51
218.1204197971549
  0
ARC
  5
4ED
102
{ACAD_REACTORS
330
53D
330
53E
102
}
330
71
100
AcDbEntity
  8
0
  6
Continuous
 62
     2
100
AcDbCircle
 10
-156.6616361876132
 20
-299.8660094074246
 30
0.0
 40
2.065479772208637
100
AcDbArc
 50
242.4518518243384
 51
297.548148175686
  0
ARC
  5
4EE
102
{ACAD_REACTORS
330
53D
330
53E
102
}
330
71
100
AcDbEntity
  8
0
  6
Continuous
 62
     2
100
AcDbCircle
 10
-156.6616361876132
 20
-300.9431594280308
 30
0.0
 40
2.065479772208694
100
AcDbArc
 50
62.45185182430819
 51
117.5481481756674
  0
ARC
  5
4EF
102
{ACAD_REACTORS
330
53D
330
53E
102
}
330
71
100
AcDbEntity
  8
0
  6
Continuous
 62
     2
100
AcDbCircle
 10
-156.9425760794466
 20
-300.404584417728
 30
0.0
 40
1.458034083651616
100
AcDbArc
 50
117.5481481756598
 51
242.451851824337
  0
ARC
  5
4F0
102
{ACAD_REACTORS
330
53D
330
53E
102
}
330
71
100
AcDbEntity
  8
0
  6
Continuous
 62
     2
100
AcDbCircle
 10
-156.38069629578
 20
-300.404584417728
 30
0.0
 40
1.45803408365203
100
AcDbArc
 50
297.5481481757055
 51
62.45185182429758
  0
ARC
  5
4F1
102
{ACAD_REACTORS
330
53B
330
53C
102
}
330
71
100
AcDbEntity
  8
0
  6
Continuous
 62
     2
100
AcDbCircle
 10
-152.7006887068197
 20
-297.2021251196741
 30
0.0
 40
0.5179085730134564
100
AcDbArc
 50
218.1204197971334
 51
321.8795802028588
  0
ARC
  5
4F2
102
{ACAD_REACTORS
330
53B
330
53C
102
}
330
71
100
AcDbEntity
  8
0
  6
Continuous
 62
     2
100
AcDbCircle
 10
-152.9004287431659
 20
-297.0453939415536
 30
0.0
 40
0.7717997786795479
100
AcDbArc
 50
321.8795802028385
 51
38.12041979715814
  0
ARC
  5
4F3
102
{ACAD_REACTORS
330
539
330
53A
102
}
330
71
100
AcDbEntity
  8
0
  6
Continuous
 62
     2
100
AcDbCircle
 10
-162.1188126302574
 20
-301.50724456425
 30
0.0
 40
0.424244615383202
100
AcDbArc
 50
270.0
 51
0.0
  0
ARC
  5
4F4
102
{ACAD_REACTORS
330
539
330
53A
102
}
330
71
100
AcDbEntity
  8
0
  6
Continuous
 62
     2
100
AcDbCircle
 10
-162.1188126302574
 20
-295.9427337950498
 30
0.0
 40
0.4242446153838841
100
AcDbArc
 50
0.0
 51
90.0
  0
ARC
  5
4F5
102
{ACAD_REACTORS
330
539
330
53A
102
}
330
71
100
AcDbEntity
  8
0
  6
Continuous
 62
     2
100
AcDbCircle
 10
-167.5921247209743
 20
-295.9427337950498
 30
0.0
 40
0.4242446153838841
100
AcDbArc
 50
90.0
 51
180.0
  0
ARC
  5
4F6
102
{ACAD_REACTORS
330
539
330
53A
102
}
330
71
100
AcDbEntity
  8
0
  6
Continuous
 62
     2
100
AcDbCircle
 10
-165.5223967832182
 20
-300.9032167009996
 30
0.0
 40
0.3157169230767067
100
AcDbArc
 50
270.0
 51
0.0
  0
ARC
  5
4F7
102
{ACAD_REACTORS
330
539
330
53A
102
}
330
71
100
AcDbEntity
  8
0
  6
Continuous
 62
     2
100
AcDbCircle
 10
-165.5223967832182
 20
-297.1507862773431
 30
0.0
 40
0.3157169230760658
100
AcDbArc
 50
295.1944106485672
 51
0.0
  0
ARC
  5
4F8
102
{ACAD_REACTORS
330
539
330
53A
102
}
330
71
100
AcDbEntity
  8
0
  6
Continuous
 62
     2
100
AcDbCircle
 10
-165.5223967832182
 20
-296.5467616582825
 30
0.0
 40
0.315716923076593
100
AcDbArc
 50
0.0
 51
90.0
  0
ARC
  5
4F9
102
{ACAD_REACTORS
330
539
330
53A
102
}
330
71
100
AcDbEntity
  8
0
  6
Continuous
 62
     2
100
AcDbCircle
 10
-166.9982300442278
 20
-300.9032167009996
 30
0.0
 40
0.3157169230755983
100
AcDbArc
 50
180.0
 51
270.0
  0
ARC
  5
4FA
102
{ACAD_REACTORS
330
53F
330
540
102
}
330
71
100
AcDbEntity
  8
0
  6
Continuous
 62
     2
100
AcDbCircle
 10
-159.2181789359723
 20
-296.5738548209815
 30
0.0
 40
1.055365641333651
100
AcDbArc
 50
270.0
 51
90.0
  0
ARC
  5
4FB
102
{ACAD_REACTORS
330
537
330
538
102
}
330
71
100
AcDbEntity
  8
0
  6
Continuous
 62
     2
100
AcDbCircle
 10
-143.4899656242812
 20
-300.2917940556931
 30
0.0
 40
1.639695123940503
100
AcDbArc
 50
195.0618917771007
 51
275.1581447696772
  0
ARC
  5
4FC
102
{ACAD_REACTORS
330
537
330
538
102
}
330
71
100
AcDbEntity
  8
0
  6
Continuous
 62
     2
100
AcDbCircle
 10
-143.7788217190171
 20
-297.0919034724715
 30
0.0
 40
4.852596863498889
100
AcDbArc
 50
275.1581447696373
 51
285.9799912583383
  0
ARC
  5
4FD
102
{ACAD_REACTORS
330
537
330
538
102
}
330
71
100
AcDbEntity
  8
0
  6
Continuous
 62
     2
100
AcDbCircle
 10
-143.6209488439243
 20
-298.9941180523198
 30
0.0
 40
2.227384008972773
100
AcDbArc
 50
288.4480761181333
 51
301.9309089499394
  0
ARC
  5
4FE
102
{ACAD_REACTORS
330
537
330
538
102
}
330
71
100
AcDbEntity
  8
0
  6
Continuous
 62
     2
100
AcDbCircle
 10
-143.2027811102623
 20
-300.2476638283565
 30
0.0
 40
0.9059297849852208
100
AcDbArc
 50
246.6277221118088
 51
288.4480761180772
  0
ARC
  5
4FF
102
{ACAD_REACTORS
330
537
330
538
102
}
330
71
100
AcDbEntity
  8
0
  6
Continuous
 62
     2
100
AcDbCircle
 10
-142.981863884884
 20
-300.404584417728
 30
0.0
 40
0.9410597353350352
100
AcDbArc
 50
151.4785267423573
 51
208.521473257667
  0
ARC
  5
500
102
{ACAD_REACTORS
330
537
330
538
102
}
330
71
100
AcDbEntity
  8
0
  6
Continuous
 62
     2
100
AcDbCircle
 10
-143.2125511448618
 20
-300.6174679687719
 30
0.0
 40
0.9545230068260935
100
AcDbArc
 50
90.0
 51
109.3371432194281
  0
ARC
  5
501
102
{ACAD_REACTORS
330
539
330
53A
102
}
330
71
100
AcDbEntity
  8
0
  6
Continuous
 62
     2
100
AcDbCircle
 10
-164.422681357696
 20
-296.5469391349307
 30
0.0
 40
0.3157169230761851
100
AcDbArc
 50
90.1889670425665
 51
180.0
  0
ARC
  5
502
102
{ACAD_REACTORS
330
539
330
53A
102
}
330
71
100
AcDbEntity
  8
0
  6
Continuous
 62
     2
100
AcDbCircle
 10
-164.9487240557839
 20
-298.2616160234053
 30
0.0
 40
0.9118481501443941
100
AcDbArc
 50
295.3740086781804
 51
64.62599132180893
  0
ARC
  5
503
102
{ACAD_REACTORS
330
535
330
536
102
}
330
71
100
AcDbEntity
  8
0
  6
Continuous
 62
     2
100
AcDbCircle
 10
-159.7236503231772
 20
-298.9941180523193
 30
0.0
 40
2.227384008972719
100
AcDbArc
 50
288.4480761181337
 51
301.9309089499637
  0
ARC
  5
504
102
{ACAD_REACTORS
330
535
330
536
102
}
330
71
100
AcDbEntity
  8
0
  6
Continuous
 62
     2
100
AcDbCircle
 10
-159.3054825895163
 20
-300.2476638283565
 30
0.0
 40
0.9059297849848262
100
AcDbArc
 50
246.6277221118665
 51
288.4480761181539
  0
ARC
  5
505
102
{ACAD_REACTORS
330
535
330
536
102
}
330
71
100
AcDbEntity
  8
0
  6
Continuous
 62
     2
100
AcDbCircle
 10
-159.4619226222184
 20
-300.6096558470665
 30
0.0
 40
0.5115800601947491
100
AcDbArc
 50
208.5214732576844
 51
246.6277221118282
  0
ARC
  5
506
102
{ACAD_REACTORS
330
535
330
536
102
}
330
71
100
AcDbEntity
  8
0
  6
Continuous
 62
     2
100
AcDbCircle
 10
-159.3054825895163
 20
-300.5615050070995
 30
0.0
 40
0.9059297849853498
100
AcDbArc
 50
71.55192388185974
 51
113.3722778881306
  0
ARC
  5
507
102
{ACAD_REACTORS
330
535
330
536
102
}
330
71
100
AcDbEntity
  8
0
  6
Continuous
 62
     2
100
AcDbCircle
 10
-159.88152319827
 20
-303.7172653629838
 30
0.0
 40
4.852596863497986
100
AcDbArc
 50
74.0200087416471
 51
84.84185523037608
  0
CIRCLE
  5
508
102
{ACAD_REACTORS
330
539
330
53A
102
}
330
71
100
AcDbEntity
  8
0
  6
Continuous
 62
     2
100
AcDbCircle
 10
-164.9725390704567
 20
-298.2616160234053
 30
0.0
 40
0.470978932778479
  0
CIRCLE
  5
509
330
71
100
AcDbEntity
  8
1
  6
Continuous
 62
     2
100
AcDbCircle
 10
-159.5163693363571
 20
-288.0999891796497
 30
0.0
 40
1.25
  0
CIRCLE
  5
50A
330
71
100
AcDbEntity
  8
1
  6
Continuous
 62
     2
100
AcDbCircle
 10
-159.5163693363571
 20
-288.0999891796497
 30
0.0
 40
2.5
  0
TEXT
  5
50B
330
71
100
AcDbEntity
  8
1
 62
     7
100
AcDbText
 10
-78.04155302950306
 20
-313.224989179649
 30
0.0
 40
2.5
  1
6
 41
0.9
  7
CONVERTER_11
100
AcDbText
  0
TEXT
  5
50C
330
71
100
AcDbEntity
  8
1
 62
     7
100
AcDbText
 10
-146.3748863628365
 20
-313.224989179649
 30
0.0
 40
2.5
  1
5
 41
0.9
  7
CONVERTER_11
100
AcDbText
  0
TEXT
  5
50D
330
71
100
AcDbEntity
  8
1
 62
     7
100
AcDbText
 10
-214.7082196961697
 20
-313.224989179649
 30
0.0
 40
2.5
  1
4
 41
0.9
  7
CONVERTER_11
100
AcDbText
  0
TEXT
  5
50E
330
71
100
AcDbEntity
  8
1
 62
     7
100
AcDbText
 10
-283.0415530295028
 20
-313.224989179649
 30
0.0
 40
2.5
  1
3
 41
0.9
  7
CONVERTER_11
100
AcDbText
  0
TEXT
  5
50F
330
71
100
AcDbEntity
  8
1
 62
     7
100
AcDbText
 10
-41.70821969616969
 20
-281.724989179649
 30
0.0
 40
2.5
  1
E
 41
0.9
  7
CONVERTER_11
100
AcDbText
  0
TEXT
  5
510
330
71
100
AcDbEntity
  8
1
 62
     7
100
AcDbText
 10
-419.7082196961694
 20
-313.224989179649
 30
0.0
 40
2.5
  1
1
 41
0.9
  7
CONVERTER_11
100
AcDbText
  0
TEXT
  5
511
330
71
100
AcDbEntity
  8
1
 62
     7
100
AcDbText
 10
-351.3748863628363
 20
-313.224989179649
 30
0.0
 40
2.5
  1
2
 41
0.9
  7
CONVERTER_11
100
AcDbText
  0
TEXT
  5
512
330
71
100
AcDbEntity
  8
1
 62
     7
100
AcDbText
 10
-41.70821969616969
 20
-224.3249891796489
 30
0.0
 40
2.5
  1
D
 41
0.9
  7
CONVERTER_11
100
AcDbText
  0
TEXT
  5
513
330
71
100
AcDbEntity
  8
1
 62
     7
100
AcDbText
 10
-41.70821969616969
 20
-166.9249891796488
 30
0.0
 40
2.5
  1
C
 41
0.9
  7
CONVERTER_11
100
AcDbText
  0
TEXT
  5
514
330
71
100
AcDbEntity
  8
1
 62
     7
100
AcDbText
 10
-41.70821969616969
 20
-109.524989179649
 30
0.0
 40
2.5
  1
B
 41
0.9
  7
CONVERTER_11
100
AcDbText
  0
TEXT
  5
515
330
71
100
AcDbEntity
  8
1
 62
     7
100
AcDbText
 10
-41.70821969616969
 20
-52.12498917964911
 30
0.0
 40
2.5
  1
A
 41
0.9
  7
CONVERTER_11
100
AcDbText
  0
TEXT
  5
516
330
71
100
AcDbEntity
  8
1
 62
     7
100
AcDbText
 10
-78.04155302950306
 20
-21.22498917964879
 30
0.0
 40
2.5
  1
6
 41
0.9
  7
CONVERTER_11
100
AcDbText
  0
TEXT
  5
517
330
71
100
AcDbEntity
  8
1
 62
     7
100
AcDbText
 10
-146.3748863628363
 20
-21.22498917964879
 30
0.0
 40
2.5
  1
5
 41
0.9
  7
CONVERTER_11
100
AcDbText
  0
TEXT
  5
518
330
71
100
AcDbEntity
  8
1
 62
     7
100
AcDbText
 10
-214.7082196961697
 20
-21.22498917964879
 30
0.0
 40
2.5
  1
4
 41
0.9
  7
CONVERTER_11
100
AcDbText
  0
TEXT
  5
519
330
71
100
AcDbEntity
  8
1
 62
     7
100
AcDbText
 10
-283.0415530295028
 20
-21.22498917964879
 30
0.0
 40
2.5
  1
3
 41
0.9
  7
CONVERTER_11
100
AcDbText
  0
TEXT
  5
51A
330
71
100
AcDbEntity
  8
1
 62
     7
100
AcDbText
 10
-351.3748863628363
 20
-21.22498917964879
 30
0.0
 40
2.5
  1
2
 41
0.9
  7
CONVERTER_11
100
AcDbText
  0
TEXT
  5
51B
330
71
100
AcDbEntity
  8
1
 62
     7
100
AcDbText
 10
-419.7082196961694
 20
-21.22498917964879
 30
0.0
 40
2.5
  1
1
 41
0.9
  7
CONVERTER_11
100
AcDbText
  0
TEXT
  5
51C
330
71
100
AcDbEntity
  8
1
 62
     7
100
AcDbText
 10
-116.8794765009059
 20
-290.9249891796496
 30
0.0
 40
2.5
  1
/
 41
0.9
  7
CONVERTER_11
100
AcDbText
  0
TEXT
  5
51E
330
71
100
AcDbEntity
  8
1
 62
     7
100
AcDbText
 10
-114.7231120038639
 20
-290.9249891796496
 30
0.0
 40
2.5
  1
00
 41
0.81
  7
CONVERTER_12
100
AcDbText
  0
TEXT
  5
51F
330
71
100
AcDbEntity
  8
1
 62
     3
100
AcDbText
 10
-77.12662797784672
 20
-290.9249891796496
 30
0.0
 40
2.5
  1
21.12.2017
 41
0.81
  7
CONVERTER_12
100
AcDbText
  0
MTEXT
  5
520
330
71
100
AcDbEntity
  8
1
 62
     2
100
AcDbMText
 10
-77.12662797784672
 20
-284.7249891796496
 30
0.0
 40
1.8
 41
0.0
 71
     1
 72
     1
  1
date
  7
CONVERTER_11
 73
     1
 44
1.32052821128451
  0
MTEXT
  5
521
330
71
100
AcDbEntity
  8
1
 62
     2
100
AcDbMText
 10
-106.9530242229197
 20
-293.2249891796496
 30
0.0
 40
1.8
 41
0.0
 71
     1
 72
     1
  1
document-type
  7
CONVERTER_11
 73
     1
 44
1.20048019207683
  0
TEXT
  5
522
330
71
100
AcDbEntity
  8
1
 62
     3
100
AcDbText
 10
-106.9530242229197
 20
-299.4249891796496
 30
0.0
 40
2.5
  1
TECDOC 2D_Productdrawing
 41
0.81
  7
CONVERTER_12
100
AcDbText
  0
MTEXT
  5
524
330
71
100
AcDbEntity
  8
1
 62
     2
100
AcDbMText
 10
-134.7530242229197
 20
-284.7249891796496
 30
0.0
 40
1.8
 41
0.0
 71
     1
 72
     1
  1
document-No. / RI
  7
CONVERTER_13
 73
     1
 44
1.32052821128451
  0
TEXT
  5
525
330
71
100
AcDbEntity
  8
1
 62
     7
100
AcDbText
 10
-134.7530242229197
 20
-290.9249891796496
 30
0.0
 40
2.5
  1
01100264
 41
0.81
  7
CONVERTER_12
100
AcDbText
  0
MTEXT
  5
527
330
71
100
AcDbEntity
  8
1
 62
     3
100
AcDbMText
 10
-47.16742383700739
 20
-290.9249891796495
 30
0.0
 40
2.5
 41
0.0
 71
     8
 72
     1
  1
2:1
  7
CONVERTER_14
 73
     1
 44
1.32052821128451
  0
MTEXT
  5
528
330
71
100
AcDbEntity
  8
1
 62
     2
100
AcDbMText
 10
-50.5266279778469
 20
-284.7249891796496
 30
0.0
 40
1.8
 41
0.0
 71
     1
 72
     1
  1
scale
  7
CONVERTER_11
 73
     1
 44
1.20048019207683
  0
MTEXT
  5
529
330
71
100
AcDbEntity
  8
1
 62
     2
100
AcDbMText
 10
-134.7530242229197
 20
-293.2249891796496
 30
0.0
 40
1.8
 41
0.0
 71
     1
 72
     1
  1
ident.-No.
  7
CONVERTER_11
 73
     1
 44
1.20048019207683
  0
TEXT
  5
52A
330
71
100
AcDbEntity
  8
1
 62
     7
100
AcDbText
 10
-134.3530242229199
 20
-299.4249891796496
 30
0.0
 40
2.5
  1
1029033
 41
0.81
  7
CONVERTER_12
100
AcDbText
  0
MTEXT
  5
52B
330
71
100
AcDbEntity
  8
1
 62
     2
100
AcDbMText
 10
-206.6640474921292
 20
-296.4749891796508
 30
0.0
 40
2.0
 41
0.0
 71
     5
 72
     1
  1
General Information\P- Simplified representation\P- Document excluded from change process\P- Linear dimensions [mm]
  7
CONVERTER_11
 73
     1
 44
1.20048019207683
  0
MTEXT
  5
52C
330
71
100
AcDbEntity
  8
1
 62
     3
100
AcDbMText
 10
-146.0530242229197
 20
-288.0999891796496
 30
0.0
 40
2.5
 41
0.0
 71
     5
 72
     1
  1
DIN A3
  7
CONVERTER_11
 73
     1
 44
1.20048019207683
  0
MTEXT
  5
52D
330
71
100
AcDbEntity
  8
1
 62
     2
100
AcDbMText
 10
-134.8530242229197
 20
-301.7249891796496
 30
0.0
 40
1.8
 41
0.0
 71
     1
 72
     1
  1
description
  7
CONVERTER_11
 73
     1
 44
1.20048019207683
  0
MTEXT
  5
52E
330
71
100
AcDbEntity
  8
1
 62
     7
100
AcDbMText
 10
-89.28062195954419
 20
-305.9749891796494
 30
0.0
 40
3.0
 41
0.0
 71
     5
 72
     1
  1
WS PT 16
  7
CONVERTER_12
 73
     1
 44
1.20048019207683
  0
TEXT
  5
52F
330
71
100
AcDbEntity
  8
1
 62
     2
100
AcDbText
 10
-147.8177154131061
 20
-307.9749891796496
 30
0.0
 40
1.8
  1
1
 41
0.9
  7
CONVERTER_11
100
AcDbText
  0
TEXT
  5
530
330
71
100
AcDbEntity
  8
1
 62
     2
100
AcDbText
 10
-162.6067592525776
 20
-308.0242378334515
 30
0.0
 40
1.8
  1
1
 41
0.9
  7
CONVERTER_11
100
AcDbText
  0
TEXT
  5
531
330
71
100
AcDbEntity
  8
1
 62
     2
100
AcDbText
 10
-171.2530242229196
 20
-307.9840063946413
 30
0.0
 40
1.8
  1
page
 41
0.9
  7
CONVERTER_11
100
AcDbText
  0
TEXT
  5
532
330
71
100
AcDbEntity
  8
1
 62
     2
100
AcDbText
 10
-153.0530242229198
 20
-307.9840063946411
 30
0.0
 40
1.8
  1
of
 41
0.9
  7
CONVERTER_11
100
AcDbText
  0
MTEXT
  5
533
330
71
100
AcDbEntity
  8
1
 62
     3
100
AcDbMText
 10
-439.4397526959104
 20
-136.2387050659953
 30
0.0
 40
1.8
 41
0.0
 71
     7
 72
     1
  3
Transfer or duplication of this document as well as the utilisation or\Pcommunication of its content are not permitted unless express consent\Pis granted. Violations give rise to claims for damages. All rights reserved\Pin case of patent, utility mo
  1
del or design patent registrations.
  7
CONVERTER_11
 11
0.0
 21
1.0
 31
0.0
 73
     1
 44
0.99639855942377
  0
MTEXT
  5
534
330
71
100
AcDbEntity
  8
1
 62
     3
100
AcDbMText
 10
-439.2855463848165
 20
-309.1980750801484
 30
0.0
 40
1.8
 41
0.0
 71
     7
 72
     1
  3
Weitergabe sowie Vervielf\U+00e4ltigung dieses Dokuments, Verwertung und \PMitteilung seines Inhalts sind verboten, soweit nicht ausdr\U+00fccklich gestattet. \PZuwiderhandlungen verpflichten zu Schadenersatz. Alle Rechte f\U+00fcr den Fall\Pder Pat
  1
ent-, Gebrauchsmuster- oder Designeintragung vorbehalten.
  7
CONVERTER_11
 11
0.0
 21
1.0
 31
0.0
 73
     1
 44
0.99639855942377
  0
HATCH
  5
535
330
71
100
AcDbEntity
  8
1
  6
Continuous
 62
     2
100
AcDbHatch
 10
0.0
 20
0.0
 30
0.0
210
0.0
220
0.0
230
1.0
  2
CUSTOM0
 70
     0
 71
     1
 91
        1
 92
        1
 93
       14
 72
     2
 10
-160.0117949469969
 20
-300.404584417728
 40
1.205656168390971
 50
164.9381082228768
 51
195.0618917770945
 73
     1
 72
     2
 10
-159.5926671035341
 20
-300.2917940556931
 40
1.639695123939437
 50
195.0618917770922
 51
275.1581447696363
 73
     1
 72
     2
 10
-159.88152319827
 20
-297.0919034724715
 40
4.852596863498272
 50
275.1581447696238
 51
285.9799912583526
 73
     1
 72
     1
 10
-158.5455952811522
 20
-301.7569857782724
 11
-158.5455952811522
 21
-300.8844687714691
 72
     2
 10
-159.7236503231772
 20
-298.9941180523193
 40
2.227384008972719
 50
58.06909105003628
 51
71.55192388186632
 73
     0
 72
     2
 10
-159.3054825895163
 20
-300.2476638283565
 40
0.9059297849848262
 50
71.55192388184605
 51
113.3722778881334
 73
     0
 72
     2
 10
-159.4619226222184
 20
-300.6096558470665
 40
0.5115800601947491
 50
113.3722778881718
 51
151.4785267423156
 73
     0
 72
     2
 10
-159.084565364138
 20
-300.404584417728
 40
0.9410597353333294
 50
151.4785267423028
 51
208.5214732577306
 73
     0
 72
     2
 10
-159.4619226222184
 20
-300.1995129883889
 40
0.5115800601948293
 50
208.5214732576844
 51
246.6277221118054
 73
     0
 72
     2
 10
-159.3054825895163
 20
-300.5615050070995
 40
0.9059297849853498
 50
246.6277221118694
 51
288.4480761181403
 73
     0
 72
     2
 10
-159.7236503231772
 20
-301.8150507831361
 40
2.227384008973465
 50
288.4480761181333
 51
301.9309089499629
 73
     0
 72
     1
 10
-158.5455952811522
 20
-299.9247000639863
 11
-158.5455952811522
 21
-299.052183057183
 72
     2
 10
-159.88152319827
 20
-303.7172653629838
 40
4.852596863497986
 50
74.0200087416471
 51
84.84185523037608
 73
     1
 72
     2
 10
-159.5926671035341
 20
-300.5173747797628
 40
1.639695123940499
 50
84.84185523036533
 51
164.9381082228905
 73
     1
 97
       14
330
507
330
450
330
4D6
330
506
330
4D7
330
4D8
330
505
330
504
330
503
330
451
330
4D9
330
4DA
330
4DB
330
4DC
 75
     1
 76
     2
 52
45.0
 41
0.1
 77
     0
 78
     1
 53
45.0
 43
62.7811309658083
 44
-72.3161373035813
 45
-0.1414213562373095
 46
0.0
 79
     0
 98
        1
 10
0.0
 20
0.0
  0
HATCH
  5
536
330
71
100
AcDbEntity
  8
1
  6
Continuous
 62
     2
100
AcDbHatch
 10
0.0
 20
0.0
 30
0.0
210
0.0
220
0.0
230
1.0
  2
CUSTOM1
 70
     0
 71
     1
 91
        1
 92
        1
 93
       14
 72
     2
 10
-160.0117949469969
 20
-300.404584417728
 40
1.205656168390971
 50
164.9381082228768
 51
195.0618917770945
 73
     1
 72
     2
 10
-159.5926671035341
 20
-300.2917940556931
 40
1.639695123939437
 50
195.0618917770922
 51
275.1581447696363
 73
     1
 72
     2
 10
-159.88152319827
 20
-297.0919034724715
 40
4.852596863498272
 50
275.1581447696238
 51
285.9799912583526
 73
     1
 72
     1
 10
-158.5455952811522
 20
-301.7569857782724
 11
-158.5455952811522
 21
-300.8844687714691
 72
     2
 10
-159.7236503231772
 20
-298.9941180523193
 40
2.227384008972719
 50
58.06909105003628
 51
71.55192388186632
 73
     0
 72
     2
 10
-159.3054825895163
 20
-300.2476638283565
 40
0.9059297849848262
 50
71.55192388184605
 51
113.3722778881334
 73
     0
 72
     2
 10
-159.4619226222184
 20
-300.6096558470665
 40
0.5115800601947491
 50
113.3722778881718
 51
151.4785267423156
 73
     0
 72
     2
 10
-159.084565364138
 20
-300.404584417728
 40
0.9410597353333294
 50
151.4785267423028
 51
208.5214732577306
 73
     0
 72
     2
 10
-159.4619226222184
 20
-300.1995129883889
 40
0.5115800601948293
 50
208.5214732576844
 51
246.6277221118054
 73
     0
 72
     2
 10
-159.3054825895163
 20
-300.5615050070995
 40
0.9059297849853498
 50
246.6277221118694
 51
288.4480761181403
 73
     0
 72
     2
 10
-159.7236503231772
 20
-301.8150507831361
 40
2.227384008973465
 50
288.4480761181333
 51
301.9309089499629
 73
     0
 72
     1
 10
-158.5455952811522
 20
-299.9247000639863
 11
-158.5455952811522
 21
-299.052183057183
 72
     2
 10
-159.88152319827
 20
-303.7172653629838
 40
4.852596863497986
 50
74.0200087416471
 51
84.84185523037608
 73
     1
 72
     2
 10
-159.5926671035341
 20
-300.5173747797628
 40
1.639695123940499
 50
84.84185523036533
 51
164.9381082228905
 73
     1
 97
       14
330
507
330
450
330
4D6
330
506
330
4D7
330
4D8
330
505
330
504
330
503
330
451
330
4D9
330
4DA
330
4DB
330
4DC
 75
     1
 76
     2
 52
45.0
 41
0.1
 77
     0
 78
     1
 53
45.0
 43
62.7811309658083
 44
-72.3161373035813
 45
-0.1414213562373095
 46
0.0
 79
     0
 98
        1
 10
0.0
 20
0.0
  0
HATCH
  5
537
330
71
100
AcDbEntity
  8
1
  6
Continuous
 62
     2
100
AcDbHatch
 10
0.0
 20
0.0
 30
0.0
210
0.0
220
0.0
230
1.0
  2
CUSTOM2
 70
     0
 71
     1
 91
        1
 92
        1
 93
       18
 72
     2
 10
-143.4899656242812
 20
-300.5173747797628
 40
1.639695123940101
 50
90.0
 51
164.9381082228993
 73
     1
 72
     2
 10
-143.9090934677429
 20
-300.404584417728
 40
1.205656168392975
 50
164.9381082229024
 51
195.0618917770924
 73
     1
 72
     2
 10
-143.4899656242812
 20
-300.2917940556931
 40
1.639695123940503
 50
195.0618917771007
 51
275.1581447696772
 73
     1
 72
     2
 10
-143.7788217190171
 20
-297.0919034724715
 40
4.852596863498889
 50
275.1581447696373
 51
285.9799912583383
 73
     1
 72
     1
 10
-142.4428938019004
 20
-301.7569857782729
 11
-142.4428938019004
 21
-300.8844687714696
 72
     2
 10
-143.6209488439243
 20
-298.9941180523198
 40
2.227384008972773
 50
58.06909105006066
 51
71.55192388186677
 73
     0
 72
     2
 10
-143.2027811102623
 20
-300.2476638283565
 40
0.9059297849852208
 50
71.55192388192279
 51
113.3722778881912
 73
     0
 72
     2
 10
-143.3592211429655
 20
-300.6096558470665
 40
0.5115800601959967
 50
113.3722778881601
 51
151.4785267423119
 73
     0
 72
     2
 10
-142.981863884884
 20
-300.404584417728
 40
0.9410597353350352
 50
151.478526742333
 51
208.5214732576427
 73
     0
 72
     2
 10
-143.3592211429655
 20
-300.1995129883889
 40
0.5115800601944048
 50
208.5214732575818
 51
250.6628567805177
 73
     0
 72
     2
 10
-143.2125511448618
 20
-300.6174679687719
 40
0.9545230068260935
 50
250.6628567805719
 51
270.0
 73
     0
 72
     1
 10
-143.2125511448618
 20
-299.6629449619458
 11
-142.1089118452937
 21
-299.6629449619458
 72
     1
 10
-142.1089118452937
 20
-299.6629449619458
 11
-142.1089118452937
 21
-301.9314891796332
 72
     1
 10
-142.1089118452937
 20
-301.9314891796332
 11
-140.916119143126
 21
-301.9314891796332
 72
     1
 10
-140.916119143126
 20
-301.9314891796332
 11
-140.916119143126
 21
-299.6629449619458
 72
     1
 10
-140.916119143126
 20
-299.6629449619458
 11
-140.1050201056526
 21
-299.6629449619458
 72
     1
 10
-140.1050201056526
 20
-299.6629449619458
 11
-140.1050201056526
 21
-298.8776796558221
 72
     1
 10
-140.1050201056526
 20
-298.8776796558221
 11
-143.4899656242812
 21
-298.8776796558227
 97
       18
330
4B6
330
4B5
330
4B4
330
4B3
330
4B8
330
452
330
500
330
4E1
330
4FF
330
4E2
330
4FE
330
4FD
330
453
330
4FC
330
4FB
330
4E3
330
4E4
330
4B7
 75
     1
 76
     2
 52
45.0
 41
0.1
 77
     0
 78
     1
 53
45.0
 43
62.7811309658083
 44
-72.3161373035813
 45
-0.1414213562373095
 46
0.0
 79
     0
 98
        1
 10
0.0
 20
0.0
  0
HATCH
  5
538
330
71
100
AcDbEntity
  8
1
  6
Continuous
 62
     2
100
AcDbHatch
 10
0.0
 20
0.0
 30
0.0
210
0.0
220
0.0
230
1.0
  2
CUSTOM3
 70
     0
 71
     1
 91
        1
 92
        1
 93
       18
 72
     2
 10
-143.4899656242812
 20
-300.5173747797628
 40
1.639695123940101
 50
90.0
 51
164.9381082228993
 73
     1
 72
     2
 10
-143.9090934677429
 20
-300.404584417728
 40
1.205656168392975
 50
164.9381082229024
 51
195.0618917770924
 73
     1
 72
     2
 10
-143.4899656242812
 20
-300.2917940556931
 40
1.639695123940503
 50
195.0618917771007
 51
275.1581447696772
 73
     1
 72
     2
 10
-143.7788217190171
 20
-297.0919034724715
 40
4.852596863498889
 50
275.1581447696373
 51
285.9799912583383
 73
     1
 72
     1
 10
-142.4428938019004
 20
-301.7569857782729
 11
-142.4428938019004
 21
-300.8844687714696
 72
     2
 10
-143.6209488439243
 20
-298.9941180523198
 40
2.227384008972773
 50
58.06909105006066
 51
71.55192388186677
 73
     0
 72
     2
 10
-143.2027811102623
 20
-300.2476638283565
 40
0.9059297849852208
 50
71.55192388192279
 51
113.3722778881912
 73
     0
 72
     2
 10
-143.3592211429655
 20
-300.6096558470665
 40
0.5115800601959967
 50
113.3722778881601
 51
151.4785267423119
 73
     0
 72
     2
 10
-142.981863884884
 20
-300.404584417728
 40
0.9410597353350352
 50
151.478526742333
 51
208.5214732576427
 73
     0
 72
     2
 10
-143.3592211429655
 20
-300.1995129883889
 40
0.5115800601944048
 50
208.5214732575818
 51
250.6628567805177
 73
     0
 72
     2
 10
-143.2125511448618
 20
-300.6174679687719
 40
0.9545230068260935
 50
250.6628567805719
 51
270.0
 73
     0
 72
     1
 10
-143.2125511448618
 20
-299.6629449619458
 11
-142.1089118452937
 21
-299.6629449619458
 72
     1
 10
-142.1089118452937
 20
-299.6629449619458
 11
-142.1089118452937
 21
-301.9314891796332
 72
     1
 10
-142.1089118452937
 20
-301.9314891796332
 11
-140.916119143126
 21
-301.9314891796332
 72
     1
 10
-140.916119143126
 20
-301.9314891796332
 11
-140.916119143126
 21
-299.6629449619458
 72
     1
 10
-140.916119143126
 20
-299.6629449619458
 11
-140.1050201056526
 21
-299.6629449619458
 72
     1
 10
-140.1050201056526
 20
-299.6629449619458
 11
-140.1050201056526
 21
-298.8776796558221
 72
     1
 10
-140.1050201056526
 20
-298.8776796558221
 11
-143.4899656242812
 21
-298.8776796558227
 97
       18
330
4B6
330
4B5
330
4B4
330
4B3
330
4B8
330
452
330
500
330
4E1
330
4FF
330
4E2
330
4FE
330
4FD
330
453
330
4FC
330
4FB
330
4E3
330
4E4
330
4B7
 75
     1
 76
     2
 52
45.0
 41
0.1
 77
     0
 78
     1
 53
45.0
 43
62.7811309658083
 44
-72.3161373035813
 45
-0.1414213562373095
 46
0.0
 79
     0
 98
        1
 10
0.0
 20
0.0
  0
HATCH
  5
539
330
71
100
AcDbEntity
  8
1
  6
Continuous
 62
     2
100
AcDbHatch
 10
0.0
 20
0.0
 30
0.0
210
0.0
220
0.0
230
1.0
  2
CUSTOM4
 70
     0
 71
     1
 91
        4
 92
        1
 93
        8
 72
     2
 10
-167.5921247209743
 20
-295.9427337950498
 40
0.4242446153838841
 50
90.0
 51
180.0
 73
     1
 72
     1
 10
-168.0163693363571
 20
-295.9427337950498
 11
-168.0163693363571
 21
-301.50724456425
 72
     2
 10
-167.5921247209743
 20
-301.50724456425
 40
0.4242446153827757
 50
180.0
 51
270.0
 73
     1
 72
     1
 10
-167.5921247209743
 20
-301.9314891796332
 11
-162.1188126302574
 21
-301.9314891796332
 72
     2
 10
-162.1188126302574
 20
-301.50724456425
 40
0.424244615383202
 50
270.0
 51
360.0
 73
     1
 72
     1
 10
-161.6945680148735
 20
-301.50724456425
 11
-161.6945680148735
 21
-295.9427337950498
 72
     2
 10
-162.1188126302574
 20
-295.9427337950498
 40
0.4242446153838841
 50
0.0
 51
90.0
 73
     1
 72
     1
 10
-162.1188126302574
 20
-295.5184891796659
 11
-167.5921247209743
 21
-295.5184891796659
 97
        8
330
4F4
330
481
330
4F3
330
482
330
4EA
330
47F
330
4F5
330
480
 92
       16
 93
       12
 72
     1
 10
-166.9982300442278
 20
-301.2189336240763
 11
-165.5223967832182
 21
-301.2189336240763
 72
     2
 10
-165.5223967832182
 20
-300.9032167009996
 40
0.3157169230767067
 50
270.0
 51
360.0
 73
     1
 72
     1
 10
-165.2066798601416
 20
-300.9032167009996
 11
-165.2066798601416
 21
-299.372445769468
 72
     2
 10
-165.5223967832182
 20
-299.372445769468
 40
0.315716923076593
 50
0.0
 51
64.805589351446
 73
     1
 72
     2
 10
-164.9998123356432
 20
-298.2616160234053
 40
0.9118975235576433
 50
115.1944106485089
 51
244.8055893514805
 73
     0
 72
     2
 10
-165.5223967832182
 20
-297.1507862773431
 40
0.3157169230760658
 50
295.1944106485672
 51
360.0
 73
     1
 72
     1
 10
-165.2066798601416
 20
-297.1507862773431
 11
-165.2066798601416
 21
-296.5467616582825
 72
     2
 10
-165.5223967832182
 20
-296.5467616582825
 40
0.315716923076593
 50
0.0
 51
90.0
 73
     1
 72
     1
 10
-165.5223967832182
 20
-296.2310447352064
 11
-166.9982300442278
 21
-296.2310447352064
 72
     2
 10
-166.9982300442278
 20
-296.5467616582825
 40
0.3157169230760815
 50
90.0
 51
180.0
 73
     1
 72
     1
 10
-167.3139469673034
 20
-296.5467616582825
 11
-167.3139469673034
 21
-300.9032167009996
 72
     2
 10
-166.9982300442278
 20
-300.9032167009996
 40
0.3157169230755983
 50
180.0
 51
270.0
 73
     1
 97
       12
330
486
330
4E7
330
485
330
4F8
330
484
330
4F7
330
4E8
330
4E9
330
483
330
4F6
330
47E
330
4F9
 92
       16
 93
        8
 72
     2
 10
-164.9487240557839
 20
-298.2616160234053
 40
0.9118481501443941
 50
295.3740086781804
 51
424.6259913218089
 73
     1
 72
     2
 10
-164.422681357696
 20
-297.1524744234375
 40
0.315716923076792
 50
115.3740086783651
 51
180.0
 73
     0
 72
     1
 10
-164.7383982807728
 20
-297.1524744234375
 11
-164.7383982807728
 21
-296.5469391349307
 72
     2
 10
-164.422681357696
 20
-296.5469391349307
 40
0.3157169230761851
 50
180.0
 51
269.8110329574335
 73
     0
 72
     2
 10
-164.417065222386
 20
-298.2497740824997
 40
2.018561131933266
 50
269.8110329575827
 51
450.1889670424174
 73
     0
 72
     2
 10
-164.422681357696
 20
-299.9526090300687
 40
0.315716923076792
 50
90.18896704256652
 51
180.0
 73
     0
 72
     1
 10
-164.7383982807728
 20
-299.9526090300687
 11
-164.7383982807728
 21
-299.3707576233736
 72
     2
 10
-164.422681357696
 20
-299.3707576233736
 40
0.3157169230765328
 50
180.0
 51
244.6259913216482
 73
     0
 97
        8
330
502
330
4DE
330
4BA
330
501
330
4DF
330
4E0
330
4B9
330
4DD
 92
       16
 93
        1
 72
     2
 10
-164.9725390704567
 20
-298.2616160234053
 40
0.470978932778479
 50
0.0
 51
360.0
 73
     1
 97
        1
330
508
 75
     1
 76
     2
 52
45.0
 41
0.1
 77
     0
 78
     1
 53
45.0
 43
62.7811309658083
 44
-72.3161373035813
 45
-0.1414213562373095
 46
0.0
 79
     0
 98
        1
 10
0.0
 20
0.0
  0
HATCH
  5
53A
330
71
100
AcDbEntity
  8
1
  6
Continuous
 62
     2
100
AcDbHatch
 10
0.0
 20
0.0
 30
0.0
210
0.0
220
0.0
230
1.0
  2
CUSTOM5
 70
     0
 71
     1
 91
        4
 92
        1
 93
        8
 72
     2
 10
-167.5921247209743
 20
-295.9427337950498
 40
0.4242446153838841
 50
90.0
 51
180.0
 73
     1
 72
     1
 10
-168.0163693363571
 20
-295.9427337950498
 11
-168.0163693363571
 21
-301.50724456425
 72
     2
 10
-167.5921247209743
 20
-301.50724456425
 40
0.4242446153827757
 50
180.0
 51
270.0
 73
     1
 72
     1
 10
-167.5921247209743
 20
-301.9314891796332
 11
-162.1188126302574
 21
-301.9314891796332
 72
     2
 10
-162.1188126302574
 20
-301.50724456425
 40
0.424244615383202
 50
270.0
 51
360.0
 73
     1
 72
     1
 10
-161.6945680148735
 20
-301.50724456425
 11
-161.6945680148735
 21
-295.9427337950498
 72
     2
 10
-162.1188126302574
 20
-295.9427337950498
 40
0.4242446153838841
 50
0.0
 51
90.0
 73
     1
 72
     1
 10
-162.1188126302574
 20
-295.5184891796659
 11
-167.5921247209743
 21
-295.5184891796659
 97
        8
330
4F4
330
481
330
4F3
330
482
330
4EA
330
47F
330
4F5
330
480
 92
       16
 93
       12
 72
     1
 10
-166.9982300442278
 20
-301.2189336240763
 11
-165.5223967832182
 21
-301.2189336240763
 72
     2
 10
-165.5223967832182
 20
-300.9032167009996
 40
0.3157169230767067
 50
270.0
 51
360.0
 73
     1
 72
     1
 10
-165.2066798601416
 20
-300.9032167009996
 11
-165.2066798601416
 21
-299.372445769468
 72
     2
 10
-165.5223967832182
 20
-299.372445769468
 40
0.315716923076593
 50
0.0
 51
64.805589351446
 73
     1
 72
     2
 10
-164.9998123356432
 20
-298.2616160234053
 40
0.9118975235576433
 50
115.1944106485089
 51
244.8055893514805
 73
     0
 72
     2
 10
-165.5223967832182
 20
-297.1507862773431
 40
0.3157169230760658
 50
295.1944106485672
 51
360.0
 73
     1
 72
     1
 10
-165.2066798601416
 20
-297.1507862773431
 11
-165.2066798601416
 21
-296.5467616582825
 72
     2
 10
-165.5223967832182
 20
-296.5467616582825
 40
0.315716923076593
 50
0.0
 51
90.0
 73
     1
 72
     1
 10
-165.5223967832182
 20
-296.2310447352064
 11
-166.9982300442278
 21
-296.2310447352064
 72
     2
 10
-166.9982300442278
 20
-296.5467616582825
 40
0.3157169230760815
 50
90.0
 51
180.0
 73
     1
 72
     1
 10
-167.3139469673034
 20
-296.5467616582825
 11
-167.3139469673034
 21
-300.9032167009996
 72
     2
 10
-166.9982300442278
 20
-300.9032167009996
 40
0.3157169230755983
 50
180.0
 51
270.0
 73
     1
 97
       12
330
486
330
4E7
330
485
330
4F8
330
484
330
4F7
330
4E8
330
4E9
330
483
330
4F6
330
47E
330
4F9
 92
       16
 93
        8
 72
     2
 10
-164.9487240557839
 20
-298.2616160234053
 40
0.9118481501443941
 50
295.3740086781804
 51
424.6259913218089
 73
     1
 72
     2
 10
-164.422681357696
 20
-297.1524744234375
 40
0.315716923076792
 50
115.3740086783651
 51
180.0
 73
     0
 72
     1
 10
-164.7383982807728
 20
-297.1524744234375
 11
-164.7383982807728
 21
-296.5469391349307
 72
     2
 10
-164.422681357696
 20
-296.5469391349307
 40
0.3157169230761851
 50
180.0
 51
269.8110329574335
 73
     0
 72
     2
 10
-164.417065222386
 20
-298.2497740824997
 40
2.018561131933266
 50
269.8110329575827
 51
450.1889670424174
 73
     0
 72
     2
 10
-164.422681357696
 20
-299.9526090300687
 40
0.315716923076792
 50
90.18896704256652
 51
180.0
 73
     0
 72
     1
 10
-164.7383982807728
 20
-299.9526090300687
 11
-164.7383982807728
 21
-299.3707576233736
 72
     2
 10
-164.422681357696
 20
-299.3707576233736
 40
0.3157169230765328
 50
180.0
 51
244.6259913216482
 73
     0
 97
        8
330
502
330
4DE
330
4BA
330
501
330
4DF
330
4E0
330
4B9
330
4DD
 92
       16
 93
        1
 72
     2
 10
-164.9725390704567
 20
-298.2616160234053
 40
0.470978932778479
 50
0.0
 51
360.0
 73
     1
 97
        1
330
508
 75
     1
 76
     2
 52
45.0
 41
0.1
 77
     0
 78
     1
 53
45.0
 43
62.7811309658083
 44
-72.3161373035813
 45
-0.1414213562373095
 46
0.0
 79
     0
 98
        1
 10
0.0
 20
0.0
  0
HATCH
  5
53B
330
71
100
AcDbEntity
  8
1
  6
Continuous
 62
     2
100
AcDbHatch
 10
0.0
 20
0.0
 30
0.0
210
0.0
220
0.0
230
1.0
  2
CUSTOM6
 70
     0
 71
     1
 91
        2
 92
        1
 93
       12
 72
     2
 10
-152.9169607169849
 20
-297.0453939415536
 40
1.526904761905769
 50
90.0
 51
270.0
 73
     1
 72
     1
 10
-152.9169607169849
 20
-298.5722987034589
 11
-149.766640993204
 21
-298.5722987034589
 72
     1
 10
-149.766640993204
 20
-298.5722987034589
 11
-149.766640993204
 21
-297.8742850980165
 72
     1
 10
-149.766640993204
 20
-297.8742850980165
 11
-151.1025688196316
 21
-297.8742850980165
 72
     1
 10
-151.1025688196316
 20
-297.8742850980165
 11
-151.1025688196316
 21
-297.3944007442748
 72
     1
 10
-151.1025688196316
 20
-297.3944007442748
 11
-149.766640993204
 21
-297.3944007442748
 72
     1
 10
-149.766640993204
 20
-297.3944007442748
 11
-149.766640993204
 21
-296.6963871388324
 72
     1
 10
-149.766640993204
 20
-296.6963871388324
 11
-151.1025688196316
 21
-296.6963871388324
 72
     1
 10
-151.1025688196316
 20
-296.6963871388324
 11
-151.1025688196316
 21
-296.2165027850907
 72
     1
 10
-151.1025688196316
 20
-296.2165027850907
 11
-149.766640993204
 21
-296.2165027850907
 72
     1
 10
-149.766640993204
 20
-296.2165027850907
 11
-149.766640993204
 21
-295.5184891796478
 72
     1
 10
-149.766640993204
 20
-295.5184891796478
 11
-152.9169607169849
 21
-295.5184891796478
 97
       12
330
475
330
46F
330
496
330
495
330
494
330
493
330
470
330
471
330
472
330
473
330
4E5
330
474
 92
       16
 93
        4
 72
     2
 10
-152.5009486704735
 20
-297.0453939415536
 40
0.7717997786796245
 50
141.8795802028484
 51
218.1204197971549
 73
     1
 72
     2
 10
-152.7006887068197
 20
-297.2021251196741
 40
0.5179085730134564
 50
218.1204197971334
 51
321.8795802028588
 73
     1
 72
     2
 10
-152.9004287431659
 20
-297.0453939415536
 40
0.7717997786795479
 50
321.8795802028385
 51
398.1204197971581
 73
     1
 72
     2
 10
-152.7006887068197
 20
-296.8886627634331
 40
0.5179085730133669
 50
38.12041979714121
 51
141.8795802028666
 73
     1
 97
        4
330
4F2
330
4F1
330
4EC
330
4EB
 75
     1
 76
     2
 52
45.0
 41
0.1
 77
     0
 78
     1
 53
45.0
 43
62.7811309658083
 44
-72.3161373035813
 45
-0.1414213562373095
 46
0.0
 79
     0
 98
        1
 10
0.0
 20
0.0
  0
HATCH
  5
53C
330
71
100
AcDbEntity
  8
1
  6
Continuous
 62
     2
100
AcDbHatch
 10
0.0
 20
0.0
 30
0.0
210
0.0
220
0.0
230
1.0
  2
CUSTOM7
 70
     0
 71
     1
 91
        2
 92
        1
 93
       12
 72
     2
 10
-152.9169607169849
 20
-297.0453939415536
 40
1.526904761905769
 50
90.0
 51
270.0
 73
     1
 72
     1
 10
-152.9169607169849
 20
-298.5722987034589
 11
-149.766640993204
 21
-298.5722987034589
 72
     1
 10
-149.766640993204
 20
-298.5722987034589
 11
-149.766640993204
 21
-297.8742850980165
 72
     1
 10
-149.766640993204
 20
-297.8742850980165
 11
-151.1025688196316
 21
-297.8742850980165
 72
     1
 10
-151.1025688196316
 20
-297.8742850980165
 11
-151.1025688196316
 21
-297.3944007442748
 72
     1
 10
-151.1025688196316
 20
-297.3944007442748
 11
-149.766640993204
 21
-297.3944007442748
 72
     1
 10
-149.766640993204
 20
-297.3944007442748
 11
-149.766640993204
 21
-296.6963871388324
 72
     1
 10
-149.766640993204
 20
-296.6963871388324
 11
-151.1025688196316
 21
-296.6963871388324
 72
     1
 10
-151.1025688196316
 20
-296.6963871388324
 11
-151.1025688196316
 21
-296.2165027850907
 72
     1
 10
-151.1025688196316
 20
-296.2165027850907
 11
-149.766640993204
 21
-296.2165027850907
 72
     1
 10
-149.766640993204
 20
-296.2165027850907
 11
-149.766640993204
 21
-295.5184891796478
 72
     1
 10
-149.766640993204
 20
-295.5184891796478
 11
-152.9169607169849
 21
-295.5184891796478
 97
       12
330
475
330
46F
330
496
330
495
330
494
330
493
330
470
330
471
330
472
330
473
330
4E5
330
474
 92
       16
 93
        4
 72
     2
 10
-152.5009486704735
 20
-297.0453939415536
 40
0.7717997786796245
 50
141.8795802028484
 51
218.1204197971549
 73
     1
 72
     2
 10
-152.7006887068197
 20
-297.2021251196741
 40
0.5179085730134564
 50
218.1204197971334
 51
321.8795802028588
 73
     1
 72
     2
 10
-152.9004287431659
 20
-297.0453939415536
 40
0.7717997786795479
 50
321.8795802028385
 51
398.1204197971581
 73
     1
 72
     2
 10
-152.7006887068197
 20
-296.8886627634331
 40
0.5179085730133669
 50
38.12041979714121
 51
141.8795802028666
 73
     1
 97
        4
330
4F2
330
4F1
330
4EC
330
4EB
 75
     1
 76
     2
 52
45.0
 41
0.1
 77
     0
 78
     1
 53
45.0
 43
62.7811309658083
 44
-72.3161373035813
 45
-0.1414213562373095
 46
0.0
 79
     0
 98
        1
 10
0.0
 20
0.0
  0
HATCH
  5
53D
330
71
100
AcDbEntity
  8
1
  6
Continuous
 62
     2
100
AcDbHatch
 10
0.0
 20
0.0
 30
0.0
210
0.0
220
0.0
230
1.0
  2
CUSTOM8
 70
     0
 71
     1
 91
        2
 92
        1
 93
        4
 72
     2
 10
-156.9425760794466
 20
-300.404584417728
 40
1.458034083651616
 50
117.5481481756598
 51
242.451851824337
 73
     1
 72
     2
 10
-156.6616361876132
 20
-299.8660094074246
 40
2.065479772208637
 50
242.4518518243384
 51
297.548148175686
 73
     1
 72
     2
 10
-156.38069629578
 20
-300.404584417728
 40
1.45803408365203
 50
297.5481481757055
 51
422.4518518242976
 73
     1
 72
     2
 10
-156.6616361876132
 20
-300.9431594280308
 40
2.065479772208694
 50
62.45185182430819
 51
117.5481481756674
 73
     1
 97
        4
330
4F0
330
4ED
330
4EF
330
4EE
 92
       16
 93
        4
 72
     2
 10
-156.6616361876132
 20
-300.2478532396075
 40
0.5179085730132806
 50
38.12041979716469
 51
141.8795802028567
 73
     1
 72
     2
 10
-156.4618961512672
 20
-300.404584417728
 40
0.771799778679551
 50
141.879580202828
 51
218.120419797162
 73
     1
 72
     2
 10
-156.6616361876132
 20
-300.5613155958479
 40
0.5179085730138424
 50
218.1204197971879
 51
321.8795802027908
 73
     1
 72
     2
 10
-156.8613762239596
 20
-300.404584417728
 40
0.7717997786795351
 50
321.8795802028432
 51
398.1204197971668
 73
     1
 97
        4
330
4D3
330
4D4
330
4D5
330
4D2
 75
     1
 76
     2
 52
45.0
 41
0.1
 77
     0
 78
     1
 53
45.0
 43
62.7811309658083
 44
-72.3161373035813
 45
-0.1414213562373095
 46
0.0
 79
     0
 98
        1
 10
0.0
 20
0.0
  0
HATCH
  5
53E
330
71
100
AcDbEntity
  8
1
  6
Continuous
 62
     2
100
AcDbHatch
 10
0.0
 20
0.0
 30
0.0
210
0.0
220
0.0
230
1.0
  2
CUSTOM9
 70
     0
 71
     1
 91
        2
 92
        1
 93
        4
 72
     2
 10
-156.9425760794466
 20
-300.404584417728
 40
1.458034083651616
 50
117.5481481756598
 51
242.451851824337
 73
     1
 72
     2
 10
-156.6616361876132
 20
-299.8660094074246
 40
2.065479772208637
 50
242.4518518243384
 51
297.548148175686
 73
     1
 72
     2
 10
-156.38069629578
 20
-300.404584417728
 40
1.45803408365203
 50
297.5481481757055
 51
422.4518518242976
 73
     1
 72
     2
 10
-156.6616361876132
 20
-300.9431594280308
 40
2.065479772208694
 50
62.45185182430819
 51
117.5481481756674
 73
     1
 97
        4
330
4F0
330
4ED
330
4EF
330
4EE
 92
       16
 93
        4
 72
     2
 10
-156.6616361876132
 20
-300.2478532396075
 40
0.5179085730132806
 50
38.12041979716469
 51
141.8795802028567
 73
     1
 72
     2
 10
-156.4618961512672
 20
-300.404584417728
 40
0.771799778679551
 50
141.879580202828
 51
218.120419797162
 73
     1
 72
     2
 10
-156.6616361876132
 20
-300.5613155958479
 40
0.5179085730138424
 50
218.1204197971879
 51
321.8795802027908
 73
     1
 72
     2
 10
-156.8613762239596
 20
-300.404584417728
 40
0.7717997786795351
 50
321.8795802028432
 51
398.1204197971668
 73
     1
 97
        4
330
4D3
330
4D4
330
4D5
330
4D2
 75
     1
 76
     2
 52
45.0
 41
0.1
 77
     0
 78
     1
 53
45.0
 43
62.7811309658083
 44
-72.3161373035813
 45
-0.1414213562373095
 46
0.0
 79
     0
 98
        1
 10
0.0
 20
0.0
  0
HATCH
  5
53F
330
71
100
AcDbEntity
  8
1
  6
Continuous
 62
     2
100
AcDbHatch
 10
0.0
 20
0.0
 30
0.0
210
0.0
220
0.0
230
1.0
  2
CUSTOM10
 70
     0
 71
     1
 91
        2
 92
        1
 93
        6
 72
     1
 10
-161.2174509340067
 20
-295.5184891796478
 11
-161.2174509340067
 21
-298.5722987034589
 72
     1
 10
-161.2174509340067
 20
-298.5722987034589
 11
-159.9769465237527
 21
-298.5722987034589
 72
     1
 10
-159.9769465237527
 20
-298.5722987034589
 11
-159.9769465237527
 21
-297.6292204623152
 72
     1
 10
-159.9769465237527
 20
-297.6292204623152
 11
-159.2181789359723
 21
-297.6292204623152
 72
     2
 10
-159.2181789359723
 20
-296.5738548209815
 40
1.055365641333651
 50
270.0
 51
450.0
 73
     1
 72
     1
 10
-159.2181789359723
 20
-295.5184891796478
 11
-161.2174509340067
 21
-295.5184891796478
 97
        6
330
4FA
330
487
330
47D
330
47C
330
489
330
488
 92
       16
 93
        4
 72
     1
 10
-159.6596514622107
 20
-296.1815950250878
 11
-159.9769465237527
 21
-296.1815950250878
 72
     1
 10
-159.9769465237527
 20
-296.1815950250878
 11
-159.9769465237527
 21
-296.8873226744301
 72
     1
 10
-159.9769465237527
 20
-296.8873226744301
 11
-159.6596514622107
 21
-296.8873226744301
 72
     2
 10
-159.6596514622107
 20
-296.534458849759
 40
0.3528638246710898
 50
270.0
 51
450.0
 73
     1
 97
        4
330
48A
330
47B
330
48B
330
4E6
 75
     1
 76
     2
 52
45.0
 41
0.1
 77
     0
 78
     1
 53
45.0
 43
62.7811309658083
 44
-72.3161373035813
 45
-0.1414213562373095
 46
0.0
 79
     0
 98
        1
 10
0.0
 20
0.0
  0
HATCH
  5
540
330
71
100
AcDbEntity
  8
1
  6
Continuous
 62
     2
100
AcDbHatch
 10
0.0
 20
0.0
 30
0.0
210
0.0
220
0.0
230
1.0
  2
CUSTOM11
 70
     0
 71
     1
 91
        2
 92
        1
 93
        6
 72
     1
 10
-161.2174509340067
 20
-295.5184891796478
 11
-161.2174509340067
 21
-298.5722987034589
 72
     1
 10
-161.2174509340067
 20
-298.5722987034589
 11
-159.9769465237527
 21
-298.5722987034589
 72
     1
 10
-159.9769465237527
 20
-298.5722987034589
 11
-159.9769465237527
 21
-297.6292204623152
 72
     1
 10
-159.9769465237527
 20
-297.6292204623152
 11
-159.2181789359723
 21
-297.6292204623152
 72
     2
 10
-159.2181789359723
 20
-296.5738548209815
 40
1.055365641333651
 50
270.0
 51
450.0
 73
     1
 72
     1
 10
-159.2181789359723
 20
-295.5184891796478
 11
-161.2174509340067
 21
-295.5184891796478
 97
        6
330
4FA
330
487
330
47D
330
47C
330
489
330
488
 92
       16
 93
        4
 72
     1
 10
-159.6596514622107
 20
-296.1815950250878
 11
-159.9769465237527
 21
-296.1815950250878
 72
     1
 10
-159.9769465237527
 20
-296.1815950250878
 11
-159.9769465237527
 21
-296.8873226744301
 72
     1
 10
-159.9769465237527
 20
-296.8873226744301
 11
-159.6596514622107
 21
-296.8873226744301
 72
     2
 10
-159.6596514622107
 20
-296.534458849759
 40
0.3528638246710898
 50
270.0
 51
450.0
 73
     1
 97
        4
330
48A
330
47B
330
48B
330
4E6
 75
     1
 76
     2
 52
45.0
 41
0.1
 77
     0
 78
     1
 53
45.0
 43
62.7811309658083
 44
-72.3161373035813
 45
-0.1414213562373095
 46
0.0
 79
     0
 98
        1
 10
0.0
 20
0.0
  0
HATCH
  5
541
330
71
100
AcDbEntity
  8
1
  6
Continuous
 62
     2
100
AcDbHatch
 10
0.0
 20
0.0
 30
0.0
210
0.0
220
0.0
230
1.0
  2
CUSTOM12
 70
     0
 71
     1
 91
        1
 92
        1
 93
       12
 72
     1
 10
-141.6031677395735
 20
-295.5184891796478
 11
-140.2004435218263
 21
-295.5184891796478
 72
     1
 10
-140.2004435218263
 20
-295.5184891796478
 11
-141.5029731525929
 21
-296.991439709684
 72
     1
 10
-141.5029731525929
 20
-296.991439709684
 11
-140.1050201056526
 21
-298.5722987034589
 72
     1
 10
-140.1050201056526
 20
-298.5722987034589
 11
-141.5077443234009
 21
-298.5722987034589
 72
     1
 10
-141.5077443234009
 20
-298.5722987034589
 11
-142.2043352614663
 21
-297.7845669181652
 72
     1
 10
-142.2043352614663
 20
-297.7845669181652
 11
-142.9009261995321
 21
-298.5722987034589
 72
     1
 10
-142.9009261995321
 20
-298.5722987034589
 11
-144.3036504172802
 21
-298.5722987034589
 72
     1
 10
-144.3036504172802
 20
-298.5722987034589
 11
-142.9056973703399
 21
-296.991439709684
 72
     1
 10
-142.9056973703399
 20
-296.991439709684
 11
-144.2082270011074
 21
-295.5184891796478
 72
     1
 10
-144.2082270011074
 20
-295.5184891796478
 11
-142.8055027833582
 21
-295.5184891796478
 72
     1
 10
-142.8055027833582
 20
-295.5184891796478
 11
-142.2043352614663
 21
-296.1983125012033
 72
     1
 10
-142.2043352614663
 20
-296.1983125012033
 11
-141.6031677395735
 21
-295.5184891796478
 97
       12
330
456
330
4AF
330
4AE
330
4AD
330
4AC
330
457
330
458
330
454
330
455
330
4B2
330
4B1
330
4B0
 75
     1
 76
     2
 52
45.0
 41
0.1
 77
     0
 78
     1
 53
45.0
 43
62.7811309658083
 44
-72.3161373035813
 45
-0.1414213562373095
 46
0.0
 79
     0
 98
        1
 10
0.0
 20
0.0
  0
HATCH
  5
542
330
71
100
AcDbEntity
  8
1
  6
Continuous
 62
     2
100
AcDbHatch
 10
0.0
 20
0.0
 30
0.0
210
0.0
220
0.0
230
1.0
  2
CUSTOM13
 70
     0
 71
     1
 91
        1
 92
        1
 93
       12
 72
     1
 10
-141.6031677395735
 20
-295.5184891796478
 11
-140.2004435218263
 21
-295.5184891796478
 72
     1
 10
-140.2004435218263
 20
-295.5184891796478
 11
-141.5029731525929
 21
-296.991439709684
 72
     1
 10
-141.5029731525929
 20
-296.991439709684
 11
-140.1050201056526
 21
-298.5722987034589
 72
     1
 10
-140.1050201056526
 20
-298.5722987034589
 11
-141.5077443234009
 21
-298.5722987034589
 72
     1
 10
-141.5077443234009
 20
-298.5722987034589
 11
-142.2043352614663
 21
-297.7845669181652
 72
     1
 10
-142.2043352614663
 20
-297.7845669181652
 11
-142.9009261995321
 21
-298.5722987034589
 72
     1
 10
-142.9009261995321
 20
-298.5722987034589
 11
-144.3036504172802
 21
-298.5722987034589
 72
     1
 10
-144.3036504172802
 20
-298.5722987034589
 11
-142.9056973703399
 21
-296.991439709684
 72
     1
 10
-142.9056973703399
 20
-296.991439709684
 11
-144.2082270011074
 21
-295.5184891796478
 72
     1
 10
-144.2082270011074
 20
-295.5184891796478
 11
-142.8055027833582
 21
-295.5184891796478
 72
     1
 10
-142.8055027833582
 20
-295.5184891796478
 11
-142.2043352614663
 21
-296.1983125012033
 72
     1
 10
-142.2043352614663
 20
-296.1983125012033
 11
-141.6031677395735
 21
-295.5184891796478
 97
       12
330
456
330
4AF
330
4AE
330
4AD
330
4AC
330
457
330
458
330
454
330
455
330
4B2
330
4B1
330
4B0
 75
     1
 76
     2
 52
45.0
 41
0.1
 77
     0
 78
     1
 53
45.0
 43
62.7811309658083
 44
-72.3161373035813
 45
-0.1414213562373095
 46
0.0
 79
     0
 98
        1
 10
0.0
 20
0.0
  0
HATCH
  5
543
330
71
100
AcDbEntity
  8
1
  6
Continuous
 62
     2
100
AcDbHatch
 10
0.0
 20
0.0
 30
0.0
210
0.0
220
0.0
230
1.0
  2
CUSTOM14
 70
     0
 71
     1
 91
        1
 92
        1
 93
        4
 72
     1
 10
-144.4229296874971
 20
-295.5184891796478
 11
-144.4229296874971
 21
-298.5722987034589
 72
     1
 10
-144.4229296874971
 20
-298.5722987034589
 11
-145.66343409775
 21
-298.5722987034589
 72
     1
 10
-145.66343409775
 20
-298.5722987034589
 11
-145.66343409775
 21
-295.5184891796478
 72
     1
 10
-145.66343409775
 20
-295.5184891796478
 11
-144.4229296874971
 21
-295.5184891796478
 97
        4
330
4AA
330
459
330
4A9
330
4AB
 75
     1
 76
     2
 52
45.0
 41
0.1
 77
     0
 78
     1
 53
45.0
 43
62.7811309658083
 44
-72.3161373035813
 45
-0.1414213562373095
 46
0.0
 79
     0
 98
        1
 10
0.0
 20
0.0
  0
HATCH
  5
544
330
71
100
AcDbEntity
  8
1
  6
Continuous
 62
     2
100
AcDbHatch
 10
0.0
 20
0.0
 30
0.0
210
0.0
220
0.0
230
1.0
  2
CUSTOM15
 70
     0
 71
     1
 91
        1
 92
        1
 93
        4
 72
     1
 10
-144.4229296874971
 20
-295.5184891796478
 11
-144.4229296874971
 21
-298.5722987034589
 72
     1
 10
-144.4229296874971
 20
-298.5722987034589
 11
-145.66343409775
 21
-298.5722987034589
 72
     1
 10
-145.66343409775
 20
-298.5722987034589
 11
-145.66343409775
 21
-295.5184891796478
 72
     1
 10
-145.66343409775
 20
-295.5184891796478
 11
-144.4229296874971
 21
-295.5184891796478
 97
        4
330
4AA
330
459
330
4A9
330
4AB
 75
     1
 76
     2
 52
45.0
 41
0.1
 77
     0
 78
     1
 53
45.0
 43
62.7811309658083
 44
-72.3161373035813
 45
-0.1414213562373095
 46
0.0
 79
     0
 98
        1
 10
0.0
 20
0.0
  0
HATCH
  5
545
330
71
100
AcDbEntity
  8
1
  6
Continuous
 62
     2
100
AcDbHatch
 10
0.0
 20
0.0
 30
0.0
210
0.0
220
0.0
230
1.0
  2
CUSTOM16
 70
     0
 71
     1
 91
        2
 92
        1
 93
        8
 72
     1
 10
-144.8133736910291
 20
-301.9314891796332
 11
-146.053878101283
 21
-301.9314891796332
 72
     1
 10
-146.053878101283
 20
-301.9314891796332
 11
-146.2653581547588
 21
-301.3905286354154
 72
     1
 10
-146.2653581547588
 20
-301.3905286354154
 11
-147.3977997314327
 21
-301.3905286354154
 72
     1
 10
-147.3977997314327
 20
-301.3905286354154
 11
-147.6092797849085
 21
-301.9314891796332
 72
     1
 10
-147.6092797849085
 20
-301.9314891796332
 11
-148.8497841951614
 21
-301.9314891796332
 72
     1
 10
-148.8497841951614
 20
-301.9314891796332
 11
-147.4518311482222
 21
-298.8776796558221
 72
     1
 10
-147.4518311482222
 20
-298.8776796558221
 11
-146.2113267379694
 21
-298.8776796558221
 72
     1
 10
-146.2113267379694
 20
-298.8776796558221
 11
-144.8133736910291
 21
-301.9314891796332
 97
        8
330
4A5
330
45F
330
4A4
330
4A7
330
45C
330
4A6
330
45D
330
45E
 92
       16
 93
        3
 72
     1
 10
-147.1317441802876
 20
-300.7099653701088
 11
-146.5314137059051
 21
-300.7099653701088
 72
     1
 10
-146.5314137059051
 20
-300.7099653701088
 11
-146.8315789430953
 21
-299.9421504041221
 72
     1
 10
-146.8315789430953
 20
-299.9421504041221
 11
-147.1317441802876
 21
-300.7099653701088
 97
        3
330
45B
330
45A
330
4A8
 75
     1
 76
     2
 52
45.0
 41
0.1
 77
     0
 78
     1
 53
45.0
 43
62.7811309658083
 44
-72.3161373035813
 45
-0.1414213562373095
 46
0.0
 79
     0
 98
        1
 10
0.0
 20
0.0
  0
HATCH
  5
546
330
71
100
AcDbEntity
  8
1
  6
Continuous
 62
     2
100
AcDbHatch
 10
0.0
 20
0.0
 30
0.0
210
0.0
220
0.0
230
1.0
  2
CUSTOM17
 70
     0
 71
     1
 91
        2
 92
        1
 93
        8
 72
     1
 10
-144.8133736910291
 20
-301.9314891796332
 11
-146.053878101283
 21
-301.9314891796332
 72
     1
 10
-146.053878101283
 20
-301.9314891796332
 11
-146.2653581547588
 21
-301.3905286354154
 72
     1
 10
-146.2653581547588
 20
-301.3905286354154
 11
-147.3977997314327
 21
-301.3905286354154
 72
     1
 10
-147.3977997314327
 20
-301.3905286354154
 11
-147.6092797849085
 21
-301.9314891796332
 72
     1
 10
-147.6092797849085
 20
-301.9314891796332
 11
-148.8497841951614
 21
-301.9314891796332
 72
     1
 10
-148.8497841951614
 20
-301.9314891796332
 11
-147.4518311482222
 21
-298.8776796558221
 72
     1
 10
-147.4518311482222
 20
-298.8776796558221
 11
-146.2113267379694
 21
-298.8776796558221
 72
     1
 10
-146.2113267379694
 20
-298.8776796558221
 11
-144.8133736910291
 21
-301.9314891796332
 97
        8
330
4A5
330
45F
330
4A4
330
4A7
330
45C
330
4A6
330
45D
330
45E
 92
       16
 93
        3
 72
     1
 10
-147.1317441802876
 20
-300.7099653701088
 11
-146.5314137059051
 21
-300.7099653701088
 72
     1
 10
-146.5314137059051
 20
-300.7099653701088
 11
-146.8315789430953
 21
-299.9421504041221
 72
     1
 10
-146.8315789430953
 20
-299.9421504041221
 11
-147.1317441802876
 21
-300.7099653701088
 97
        3
330
45B
330
45A
330
4A8
 75
     1
 76
     2
 52
45.0
 41
0.1
 77
     0
 78
     1
 53
45.0
 43
62.7811309658083
 44
-72.3161373035813
 45
-0.1414213562373095
 46
0.0
 79
     0
 98
        1
 10
0.0
 20
0.0
  0
HATCH
  5
547
330
71
100
AcDbEntity
  8
1
  6
Continuous
 62
     2
100
AcDbHatch
 10
0.0
 20
0.0
 30
0.0
210
0.0
220
0.0
230
1.0
  2
CUSTOM18
 70
     0
 71
     1
 91
        1
 92
        1
 93
        8
 72
     1
 10
-151.0072963343437
 20
-298.8776796558221
 11
-151.0072963343437
 21
-299.6629449619458
 72
     1
 10
-151.0072963343437
 20
-299.6629449619458
 11
-150.196197296869
 21
-299.6629449619458
 72
     1
 10
-150.196197296869
 20
-299.6629449619458
 11
-150.196197296869
 21
-301.9314891796332
 72
     1
 10
-150.196197296869
 20
-301.9314891796332
 11
-149.0034045947026
 21
-301.9314891796332
 72
     1
 10
-149.0034045947026
 20
-301.9314891796332
 11
-149.0034045947026
 21
-299.6629449619458
 72
     1
 10
-149.0034045947026
 20
-299.6629449619458
 11
-148.19230555723
 21
-299.6629449619458
 72
     1
 10
-148.19230555723
 20
-299.6629449619458
 11
-148.19230555723
 21
-298.8776796558221
 72
     1
 10
-148.19230555723
 20
-298.8776796558221
 11
-151.0072963343437
 21
-298.8776796558221
 97
        8
330
4A1
330
4A0
330
49F
330
460
330
461
330
4A3
330
462
330
4A2
 75
     1
 76
     2
 52
45.0
 41
0.1
 77
     0
 78
     1
 53
45.0
 43
62.7811309658083
 44
-72.3161373035813
 45
-0.1414213562373095
 46
0.0
 79
     0
 98
        1
 10
0.0
 20
0.0
  0
HATCH
  5
548
330
71
100
AcDbEntity
  8
1
  6
Continuous
 62
     2
100
AcDbHatch
 10
0.0
 20
0.0
 30
0.0
210
0.0
220
0.0
230
1.0
  2
CUSTOM19
 70
     0
 71
     1
 91
        1
 92
        1
 93
        8
 72
     1
 10
-151.0072963343437
 20
-298.8776796558221
 11
-151.0072963343437
 21
-299.6629449619458
 72
     1
 10
-151.0072963343437
 20
-299.6629449619458
 11
-150.196197296869
 21
-299.6629449619458
 72
     1
 10
-150.196197296869
 20
-299.6629449619458
 11
-150.196197296869
 21
-301.9314891796332
 72
     1
 10
-150.196197296869
 20
-301.9314891796332
 11
-149.0034045947026
 21
-301.9314891796332
 72
     1
 10
-149.0034045947026
 20
-301.9314891796332
 11
-149.0034045947026
 21
-299.6629449619458
 72
     1
 10
-149.0034045947026
 20
-299.6629449619458
 11
-148.19230555723
 21
-299.6629449619458
 72
     1
 10
-148.19230555723
 20
-299.6629449619458
 11
-148.19230555723
 21
-298.8776796558221
 72
     1
 10
-148.19230555723
 20
-298.8776796558221
 11
-151.0072963343437
 21
-298.8776796558221
 97
        8
330
4A1
330
4A0
330
49F
330
460
330
461
330
4A3
330
462
330
4A2
 75
     1
 76
     2
 52
45.0
 41
0.1
 77
     0
 78
     1
 53
45.0
 43
62.7811309658083
 44
-72.3161373035813
 45
-0.1414213562373095
 46
0.0
 79
     0
 98
        1
 10
0.0
 20
0.0
  0
HATCH
  5
549
330
71
100
AcDbEntity
  8
1
  6
Continuous
 62
     2
100
AcDbHatch
 10
0.0
 20
0.0
 30
0.0
210
0.0
220
0.0
230
1.0
  2
CUSTOM20
 70
     0
 71
     1
 91
        1
 92
        1
 93
       10
 72
     1
 10
-148.3352897506046
 20
-295.5184891796478
 11
-149.528082452771
 21
-295.5184891796478
 72
     1
 10
-149.528082452771
 20
-295.5184891796478
 11
-149.528082452771
 21
-298.5722987034589
 72
     1
 10
-149.528082452771
 20
-298.5722987034589
 11
-148.3352897506046
 21
-298.5722987034589
 72
     1
 10
-148.3352897506046
 20
-298.5722987034589
 11
-148.3352897506046
 21
-297.2635231932542
 72
     1
 10
-148.3352897506046
 20
-297.2635231932542
 11
-147.0947853403505
 21
-298.5722987034589
 72
     1
 10
-147.0947853403505
 20
-298.5722987034589
 11
-145.9019926381839
 21
-298.5722987034589
 72
     1
 10
-145.9019926381839
 20
-298.5722987034589
 11
-145.9019926381839
 21
-295.5184891796478
 72
     1
 10
-145.9019926381839
 20
-295.5184891796478
 11
-147.0947853403505
 21
-295.5184891796478
 72
     1
 10
-147.0947853403505
 20
-295.5184891796478
 11
-147.0947853403505
 21
-296.8272646898529
 72
     1
 10
-147.0947853403505
 20
-296.8272646898529
 11
-148.3352897506046
 21
-295.5184891796478
 97
       10
330
49B
330
465
330
466
330
467
330
468
330
49E
330
463
330
49D
330
49C
330
464
 75
     1
 76
     2
 52
45.0
 41
0.1
 77
     0
 78
     1
 53
45.0
 43
62.7811309658083
 44
-72.3161373035813
 45
-0.1414213562373095
 46
0.0
 79
     0
 98
        1
 10
0.0
 20
0.0
  0
HATCH
  5
54A
330
71
100
AcDbEntity
  8
1
  6
Continuous
 62
     2
100
AcDbHatch
 10
0.0
 20
0.0
 30
0.0
210
0.0
220
0.0
230
1.0
  2
CUSTOM21
 70
     0
 71
     1
 91
        1
 92
        1
 93
       10
 72
     1
 10
-148.3352897506046
 20
-295.5184891796478
 11
-149.528082452771
 21
-295.5184891796478
 72
     1
 10
-149.528082452771
 20
-295.5184891796478
 11
-149.528082452771
 21
-298.5722987034589
 72
     1
 10
-149.528082452771
 20
-298.5722987034589
 11
-148.3352897506046
 21
-298.5722987034589
 72
     1
 10
-148.3352897506046
 20
-298.5722987034589
 11
-148.3352897506046
 21
-297.2635231932542
 72
     1
 10
-148.3352897506046
 20
-297.2635231932542
 11
-147.0947853403505
 21
-298.5722987034589
 72
     1
 10
-147.0947853403505
 20
-298.5722987034589
 11
-145.9019926381839
 21
-298.5722987034589
 72
     1
 10
-145.9019926381839
 20
-298.5722987034589
 11
-145.9019926381839
 21
-295.5184891796478
 72
     1
 10
-145.9019926381839
 20
-295.5184891796478
 11
-147.0947853403505
 21
-295.5184891796478
 72
     1
 10
-147.0947853403505
 20
-295.5184891796478
 11
-147.0947853403505
 21
-296.8272646898529
 72
     1
 10
-147.0947853403505
 20
-296.8272646898529
 11
-148.3352897506046
 21
-295.5184891796478
 97
       10
330
49B
330
465
330
466
330
467
330
468
330
49E
330
463
330
49D
330
49C
330
464
 75
     1
 76
     2
 52
45.0
 41
0.1
 77
     0
 78
     1
 53
45.0
 43
62.7811309658083
 44
-72.3161373035813
 45
-0.1414213562373095
 46
0.0
 79
     0
 98
        1
 10
0.0
 20
0.0
  0
HATCH
  5
54B
330
71
100
AcDbEntity
  8
1
  6
Continuous
 62
     2
100
AcDbHatch
 10
0.0
 20
0.0
 30
0.0
210
0.0
220
0.0
230
1.0
  2
CUSTOM22
 70
     0
 71
     1
 91
        1
 92
        1
 93
       10
 72
     1
 10
-153.5837285710232
 20
-298.8776796558221
 11
-154.7765212731907
 21
-298.8776796558221
 72
     1
 10
-154.7765212731907
 20
-298.8776796558221
 11
-154.7765212731907
 21
-301.9314891796332
 72
     1
 10
-154.7765212731907
 20
-301.9314891796332
 11
-153.5837285710232
 21
-301.9314891796332
 72
     1
 10
-153.5837285710232
 20
-301.9314891796332
 11
-153.5837285710232
 21
-300.6227136694287
 72
     1
 10
-153.5837285710232
 20
-300.6227136694287
 11
-152.3432241607702
 21
-301.9314891796332
 72
     1
 10
-152.3432241607702
 20
-301.9314891796332
 11
-151.1504314586038
 21
-301.9314891796332
 72
     1
 10
-151.1504314586038
 20
-301.9314891796332
 11
-151.1504314586038
 21
-298.8776796558221
 72
     1
 10
-151.1504314586038
 20
-298.8776796558221
 11
-152.3432241607702
 21
-298.8776796558221
 72
     1
 10
-152.3432241607702
 20
-298.8776796558221
 11
-152.3432241607702
 21
-300.1864551660273
 72
     1
 10
-152.3432241607702
 20
-300.1864551660273
 11
-153.5837285710232
 21
-298.8776796558221
 97
       10
330
46A
330
46B
330
46C
330
498
330
46D
330
46E
330
497
330
49A
330
499
330
469
 75
     1
 76
     2
 52
45.0
 41
0.1
 77
     0
 78
     1
 53
45.0
 43
62.7811309658083
 44
-72.3161373035813
 45
-0.1414213562373095
 46
0.0
 79
     0
 98
        1
 10
0.0
 20
0.0
  0
HATCH
  5
54C
330
71
100
AcDbEntity
  8
1
  6
Continuous
 62
     2
100
AcDbHatch
 10
0.0
 20
0.0
 30
0.0
210
0.0
220
0.0
230
1.0
  2
CUSTOM23
 70
     0
 71
     1
 91
        1
 92
        1
 93
       10
 72
     1
 10
-153.5837285710232
 20
-298.8776796558221
 11
-154.7765212731907
 21
-298.8776796558221
 72
     1
 10
-154.7765212731907
 20
-298.8776796558221
 11
-154.7765212731907
 21
-301.9314891796332
 72
     1
 10
-154.7765212731907
 20
-301.9314891796332
 11
-153.5837285710232
 21
-301.9314891796332
 72
     1
 10
-153.5837285710232
 20
-301.9314891796332
 11
-153.5837285710232
 21
-300.6227136694287
 72
     1
 10
-153.5837285710232
 20
-300.6227136694287
 11
-152.3432241607702
 21
-301.9314891796332
 72
     1
 10
-152.3432241607702
 20
-301.9314891796332
 11
-151.1504314586038
 21
-301.9314891796332
 72
     1
 10
-151.1504314586038
 20
-301.9314891796332
 11
-151.1504314586038
 21
-298.8776796558221
 72
     1
 10
-151.1504314586038
 20
-298.8776796558221
 11
-152.3432241607702
 21
-298.8776796558221
 72
     1
 10
-152.3432241607702
 20
-298.8776796558221
 11
-152.3432241607702
 21
-300.1864551660273
 72
     1
 10
-152.3432241607702
 20
-300.1864551660273
 11
-153.5837285710232
 21
-298.8776796558221
 97
       10
330
46A
330
46B
330
46C
330
498
330
46D
330
46E
330
497
330
49A
330
499
330
469
 75
     1
 76
     2
 52
45.0
 41
0.1
 77
     0
 78
     1
 53
45.0
 43
62.7811309658083
 44
-72.3161373035813
 45
-0.1414213562373095
 46
0.0
 79
     0
 98
        1
 10
0.0
 20
0.0
  0
HATCH
  5
54D
330
71
100
AcDbEntity
  8
1
  6
Continuous
 62
     2
100
AcDbHatch
 10
0.0
 20
0.0
 30
0.0
210
0.0
220
0.0
230
1.0
  2
CUSTOM24
 70
     0
 71
     1
 91
        1
 92
        1
 93
       12
 72
     1
 10
-154.5855235099585
 20
-295.5184891796478
 11
-154.5855235099585
 21
-298.5722987034589
 72
     1
 10
-154.5855235099585
 20
-298.5722987034589
 11
-155.778316212125
 21
-298.5722987034589
 72
     1
 10
-155.778316212125
 20
-298.5722987034589
 11
-155.778316212125
 21
-297.4380265946152
 72
     1
 10
-155.778316212125
 20
-297.4380265946152
 11
-156.8279737900324
 21
-297.4380265946152
 72
     1
 10
-156.8279737900324
 20
-297.4380265946152
 11
-156.8279737900324
 21
-298.5722987034589
 72
     1
 10
-156.8279737900324
 20
-298.5722987034589
 11
-158.020766492199
 21
-298.5722987034589
 72
     1
 10
-158.020766492199
 20
-298.5722987034589
 11
-158.020766492199
 21
-295.5184891796478
 72
     1
 10
-158.020766492199
 20
-295.5184891796478
 11
-156.8279737900324
 21
-295.5184891796478
 72
     1
 10
-156.8279737900324
 20
-295.5184891796478
 11
-156.8279737900324
 21
-296.5873225129824
 72
     1
 10
-156.8279737900324
 20
-296.5873225129824
 11
-155.778316212125
 21
-296.5873225129824
 72
     1
 10
-155.778316212125
 20
-296.5873225129824
 11
-155.778316212125
 21
-295.5184891796478
 72
     1
 10
-155.778316212125
 20
-295.5184891796478
 11
-154.5855235099585
 21
-295.5184891796478
 97
       12
330
492
330
491
330
490
330
478
330
479
330
48F
330
47A
330
48E
330
48D
330
48C
330
476
330
477
 75
     1
 76
     2
 52
45.0
 41
0.1
 77
     0
 78
     1
 53
45.0
 43
62.7811309658083
 44
-72.3161373035813
 45
-0.1414213562373095
 46
0.0
 79
     0
 98
        1
 10
0.0
 20
0.0
  0
HATCH
  5
54E
330
71
100
AcDbEntity
  8
1
  6
Continuous
 62
     2
100
AcDbHatch
 10
0.0
 20
0.0
 30
0.0
210
0.0
220
0.0
230
1.0
  2
CUSTOM25
 70
     0
 71
     1
 91
        1
 92
        1
 93
       12
 72
     1
 10
-154.5855235099585
 20
-295.5184891796478
 11
-154.5855235099585
 21
-298.5722987034589
 72
     1
 10
-154.5855235099585
 20
-298.5722987034589
 11
-155.778316212125
 21
-298.5722987034589
 72
     1
 10
-155.778316212125
 20
-298.5722987034589
 11
-155.778316212125
 21
-297.4380265946152
 72
     1
 10
-155.778316212125
 20
-297.4380265946152
 11
-156.8279737900324
 21
-297.4380265946152
 72
     1
 10
-156.8279737900324
 20
-297.4380265946152
 11
-156.8279737900324
 21
-298.5722987034589
 72
     1
 10
-156.8279737900324
 20
-298.5722987034589
 11
-158.020766492199
 21
-298.5722987034589
 72
     1
 10
-158.020766492199
 20
-298.5722987034589
 11
-158.020766492199
 21
-295.5184891796478
 72
     1
 10
-158.020766492199
 20
-295.5184891796478
 11
-156.8279737900324
 21
-295.5184891796478
 72
     1
 10
-156.8279737900324
 20
-295.5184891796478
 11
-156.8279737900324
 21
-296.5873225129824
 72
     1
 10
-156.8279737900324
 20
-296.5873225129824
 11
-155.778316212125
 21
-296.5873225129824
 72
     1
 10
-155.778316212125
 20
-296.5873225129824
 11
-155.778316212125
 21
-295.5184891796478
 72
     1
 10
-155.778316212125
 20
-295.5184891796478
 11
-154.5855235099585
 21
-295.5184891796478
 97
       12
330
492
330
491
330
490
330
478
330
479
330
48F
330
47A
330
48E
330
48D
330
48C
330
476
330
477
 75
     1
 76
     2
 52
45.0
 41
0.1
 77
     0
 78
     1
 53
45.0
 43
62.7811309658083
 44
-72.3161373035813
 45
-0.1414213562373095
 46
0.0
 79
     0
 98
        1
 10
0.0
 20
0.0
  0
ENDBLK
  5
73
330
71
100
AcDbEntity
  8
0
100
AcDbBlockEnd
  0
BLOCK
  5
75
330
74
100
AcDbEntity
  8
0
100
AcDbBlockBegin
  2
_punkt
 70
     0
 10
-42.70821969616975
 20
-309.2249891796495
 30
0.0
  3
_punkt
  1

  0
LINE
  5
54F
330
74
100
AcDbEntity
  8
1
  6
Continuous
 62
     2
100
AcDbLine
 10
-42.70821969616969
 20
-309.2249891796495
 30
0.0
 11
-42.70821969616969
 21
-314.224989179649
 31
0.0
  0
LINE
  5
550
330
74
100
AcDbEntity
  8
1
  6
Continuous
 62
     2
100
AcDbLine
 10
-42.70821969616969
 20
-309.2249891796495
 30
0.0
 11
-37.70821969617208
 21
-309.2249891796495
 31
0.0
  0
ENDBLK
  5
76
330
74
100
AcDbEntity
  8
0
100
AcDbBlockEnd
  0
BLOCK
  5
7A
330
77
100
AcDbEntity
  8
0
100
AcDbBlockBegin
  2
A3I_CS
 70
     0
 10
-42.70821969616969
 20
-314.224989179649
 30
0.0
  3
A3I_CS
  1

  0
INSERT
  5
78
330
77
100
AcDbEntity
  8
1
100
AcDbBlockReference
  2
_rahmen
 10
-42.70821969616969
 20
-314.224989179649
 30
0.0
  0
INSERT
  5
79
330
77
100
AcDbEntity
  8
1
100
AcDbBlockReference
  2
_punkt
 10
-42.70821969616975
 20
-309.2249891796495
 30
0.0
  0
ENDBLK
  5
7B
330
77
100
AcDbEntity
  8
0
100
AcDbBlockEnd
  0
BLOCK
  5
84
330
7C
100
AcDbEntity
  8
0
100
AcDbBlockBegin
  2
1
 70
     0
 10
0.0
 20
0.0
 30
0.0
  3
1
  1

  0
INSERT
  5
7D
330
7C
100
AcDbEntity
  8
0
100
AcDbBlockReference
  2
Allg1
 10
-132.0000010998868
 20
-205.999999218046
 30
0.0
 41
2.0
 42
2.0
 43
2.0
  0
INSERT
  5
7E
330
7C
100
AcDbEntity
  8
0
100
AcDbBlockReference
  2
Drfsicht1
 10
-251.9001540489836
 20
-184.4500772362139
 30
0.0
 41
2.0
 42
2.0
 43
2.0
  0
INSERT
  5
7F
330
7C
100
AcDbEntity
  8
0
100
AcDbBlockReference
  2
Rckans1
 10
-71.99999831719401
 20
-82.99999994032795
 30
0.0
 41
2.0
 42
2.0
 43
2.0
  0
INSERT
  5
80
330
7C
100
AcDbEntity
  8
0
100
AcDbBlockReference
  2
SA_Links1
 10
-156.450081487471
 20
-82.99999994032807
 30
0.0
 41
2.0
 42
2.0
 43
2.0
  0
INSERT
  5
81
330
7C
100
AcDbEntity
  8
0
100
AcDbBlockReference
  2
SA_Rechts1
 10
-338.3502296298972
 20
-82.99999994032795
 30
0.0
 41
2.0
 42
2.0
 43
2.0
  0
INSERT
  5
82
330
7C
100
AcDbEntity
  8
0
100
AcDbBlockReference
  2
Vordans1
 10
-251.9001540489844
 20
-82.99999994032808
 30
0.0
 41
2.0
 42
2.0
 43
2.0
  0
INSERT
  5
83
330
7C
100
AcDbEntity
  8
0
100
AcDbBlockReference
  2
A3I_CS
 10
-42.70821969616969
 20
-314.224989179649
 30
0.0
  0
ENDBLK
  5
85
330
7C
100
AcDbEntity
  8
0
100
AcDbBlockEnd
  0
BLOCK
  5
2AD
330
2A6
100
AcDbEntity
  8
0
100
AcDbBlockBegin
  2
*D17
 70
     1
 10
0.0
 20
0.0
 30
0.0
  3
*D17
  1

  0
LINE
  5
2A7
330
2A6
100
AcDbEntity
  8
1
  6
Continuous
 62
     2
100
AcDbLine
 10
-113.2000403143564
 20
-47.24999983714726
 30
0.0
 11
-113.2000403143564
 21
-35.74999987812193
 31
0.0
  0
LINE
  5
2A8
330
2A6
100
AcDbEntity
  8
1
  6
Continuous
 62
     2
100
AcDbLine
 10
-108.2000403143248
 20
-47.24999983714726
 30
0.0
 11
-113.9500403143564
 21
-47.24999983714726
 31
0.0
  0
LINE
  5
2A9
330
2A6
100
AcDbEntity
  8
1
  6
Continuous
 62
     2
100
AcDbLine
 10
-108.2000403143564
 20
-35.74999987812193
 30
0.0
 11
-113.9500403143564
 21
-35.74999987812193
 31
0.0
  0
SOLID
  5
2AA
330
2A6
100
AcDbEntity
  8
1
 62
     2
100
AcDbTrace
 10
-113.4304321851343
 20
-45.49999983714726
 30
0.0
 11
-112.9696484435785
 21
-45.49999983714726
 31
0.0
 12
-113.2000403143564
 22
-47.24999983714726
 32
0.0
 13
-113.2000403143564
 23
-47.24999983714726
 33
0.0
  0
SOLID
  5
2AB
330
2A6
100
AcDbEntity
  8
1
 62
     2
100
AcDbTrace
 10
-112.9696484435785
 20
-37.49999987812193
 30
0.0
 11
-113.4304321851343
 21
-37.49999987812193
 31
0.0
 12
-113.2000403143564
 22
-35.74999987812193
 32
0.0
 13
-113.2000403143564
 23
-35.74999987812193
 33
0.0
  0
MTEXT
  5
2AC
330
2A6
100
AcDbEntity
  8
1
 62
     3
100
AcDbMText
 10
-114.1250403143564
 20
-43.69793479598295
 30
0.0
 40
1.75
 41
0.0
 71
     7
 72
     1
  1
11,5
  7
CONVERTER_11
 11
0.0
 21
1.0
 31
0.0
 73
     1
 44
0.60024009603842
  0
ENDBLK
  5
2AE
330
2A6
100
AcDbEntity
  8
0
100
AcDbBlockEnd
  0
BLOCK
  5
2B8
330
2B1
100
AcDbEntity
  8
0
100
AcDbBlockBegin
  2
*D18
 70
     1
 10
0.0
 20
0.0
 30
0.0
  3
*D18
  1

  0
LINE
  5
2B2
330
2B1
100
AcDbEntity
  8
1
  6
Continuous
 62
     2
100
AcDbLine
 10
-108.2000403143248
 20
-52.24999983714726
 30
0.0
 11
-48.25004031432324
 21
-52.24999983714726
 31
0.0
  0
LINE
  5
2B3
330
2B1
100
AcDbEntity
  8
1
  6
Continuous
 62
     2
100
AcDbLine
 10
-108.2000403143248
 20
-47.24999983714726
 30
0.0
 11
-108.2000403143248
 21
-52.99999983714726
 31
0.0
  0
LINE
  5
2B4
330
2B1
100
AcDbEntity
  8
1
  6
Continuous
 62
     2
100
AcDbLine
 10
-48.25004031432324
 20
-47.24999983679865
 30
0.0
 11
-48.25004031432324
 21
-52.99999983714726
 31
0.0
  0
SOLID
  5
2B5
330
2B1
100
AcDbEntity
  8
1
 62
     2
100
AcDbTrace
 10
-106.4500403143248
 20
-52.01960796636931
 30
0.0
 11
-106.4500403143248
 21
-52.4803917079252
 31
0.0
 12
-108.2000403143248
 22
-52.24999983714726
 32
0.0
 13
-108.2000403143248
 23
-52.24999983714726
 33
0.0
  0
SOLID
  5
2B6
330
2B1
100
AcDbEntity
  8
1
 62
     2
100
AcDbTrace
 10
-50.00004031432324
 20
-52.4803917079252
 30
0.0
 11
-50.00004031432324
 21
-52.01960796636931
 31
0.0
 12
-48.25004031432324
 22
-52.24999983714726
 32
0.0
 13
-48.25004031432324
 23
-52.24999983714726
 33
0.0
  0
MTEXT
  5
2B7
330
2B1
100
AcDbEntity
  8
1
 62
     3
100
AcDbMText
 10
-79.53754074373555
 20
-51.49999983714726
 30
0.0
 40
1.75
 41
0.0
 71
     7
 72
     1
  1
60
  7
CONVERTER_11
 11
0.9999999999970619
 21
2.424068405545306E-6
 31
0.0
 73
     1
 44
0.60024009603842
  0
ENDBLK
  5
2B9
330
2B1
100
AcDbEntity
  8
0
100
AcDbBlockEnd
  0
BLOCK
  5
400
330
3F9
100
AcDbEntity
  8
0
100
AcDbBlockBegin
  2
*D19
 70
     1
 10
0.0
 20
0.0
 30
0.0
  3
*D19
  1

  0
LINE
  5
3FA
330
3F9
100
AcDbEntity
  8
1
  6
Continuous
 62
     2
100
AcDbLine
 10
-122.7000777806824
 20
-52.20476295879446
 30
0.0
 11
-129.2000777806855
 21
-52.20476295879446
 31
0.0
  0
LINE
  5
3FB
330
3F9
100
AcDbEntity
  8
1
  6
Continuous
 62
     2
100
AcDbLine
 10
-122.7000777806824
 20
-39.60346527541464
 30
0.0
 11
-122.7000777806824
 21
-52.95476295879446
 31
0.0
  0
LINE
  5
3FC
330
3F9
100
AcDbEntity
  8
1
  6
Continuous
 62
     2
100
AcDbLine
 10
-129.2000777806855
 20
-47.20476295879446
 30
0.0
 11
-129.2000777806855
 21
-52.95476295879446
 31
0.0
  0
SOLID
  5
3FD
330
3F9
100
AcDbEntity
  8
1
 62
     2
100
AcDbTrace
 10
-124.4500777806824
 20
-52.4351548295724
 30
0.0
 11
-124.4500777806824
 21
-51.97437108801652
 31
0.0
 12
-122.7000777806824
 22
-52.20476295879446
 32
0.0
 13
-122.7000777806824
 23
-52.20476295879446
 33
0.0
  0
SOLID
  5
3FE
330
3F9
100
AcDbEntity
  8
1
 62
     2
100
AcDbTrace
 10
-127.4500777806855
 20
-51.97437108801652
 30
0.0
 11
-127.4500777806855
 21
-52.4351548295724
 31
0.0
 12
-129.2000777806855
 22
-52.20476295879446
 32
0.0
 13
-129.2000777806855
 23
-52.20476295879446
 33
0.0
  0
MTEXT
  5
3FF
330
3F9
100
AcDbEntity
  8
1
 62
     3
100
AcDbMText
 10
-127.5688270244921
 20
-51.27976295879446
 30
0.0
 40
1.75
 41
0.0
 71
     7
 72
     1
  1
6,5
  7
CONVERTER_11
 11
0.9999999999970619
 21
2.424068405545306E-6
 31
0.0
 73
     1
 44
0.60024009603842
  0
ENDBLK
  5
401
330
3F9
100
AcDbEntity
  8
0
100
AcDbBlockEnd
  0
ENDSEC
  0
SECTION
  2
ENTITIES
  0
INSERT
  5
86
330
1F
100
AcDbEntity
  8
1
100
AcDbBlockReference
  2
1
 10
0.0
 20
0.0
 30
0.0
  0
ENDSEC
  0
SECTION
  2
OBJECTS
  0
DICTIONARY
  5
C
330
0
100
AcDbDictionary
281
     1
  3
ACAD_GROUP
350
D
  3
ACAD_LAYOUT
350
1A
  3
ACAD_MATERIAL
350
3B
  3
ACAD_MLEADERSTYLE
350
578
  3
ACAD_MLINESTYLE
350
17
  3
ACAD_PLOTSETTINGS
350
19
  3
ACAD_PLOTSTYLENAME
350
E
  3
ACAD_TABLESTYLE
350
577
  3
ACAD_VISUALSTYLE
350
2A
  0
DICTIONARY
  5
D
102
{ACAD_REACTORS
330
C
102
}
330
C
100
AcDbDictionary
281
     1
  0
DICTIONARY
  5
1A
102
{ACAD_REACTORS
330
C
102
}
330
C
100
AcDbDictionary
281
     1
  3
Layout1
350
1E
  3
Layout2
350
26
  3
Model
350
22
  0
DICTIONARY
  5
3B
102
{ACAD_REACTORS
330
C
102
}
330
C
100
AcDbDictionary
281
     1
  3
ByBlock
350
3D
  3
ByLayer
350
3C
  3
Global
350
3E
  0
DICTIONARY
  5
578
102
{ACAD_REACTORS
330
C
102
}
330
C
100
AcDbDictionary
281
     1
  0
DICTIONARY
  5
17
102
{ACAD_REACTORS
330
C
102
}
330
C
100
AcDbDictionary
281
     1
  3
Standard
350
18
  0
DICTIONARY
  5
19
102
{ACAD_REACTORS
330
C
102
}
330
C
100
AcDbDictionary
281
     1
  0
ACDBDICTIONARYWDFLT
  5
E
102
{ACAD_REACTORS
330
C
102
}
330
C
100
AcDbDictionary
281
     1
  3
Normal
350
F
100
AcDbDictionaryWithDefault
340
F
  0
DICTIONARY
  5
577
102
{ACAD_REACTORS
330
C
102
}
330
C
100
AcDbDictionary
281
     1
  0
DICTIONARY
  5
2A
102
{ACAD_REACTORS
330
C
102
}
330
C
100
AcDbDictionary
281
     1
  3
2dWireframe
350
2F
  3
3D Hidden
350
31
  3
3dWireframe
350
30
  3
Basic
350
32
  3
Brighten
350
36
  3
ColorChange
350
3A
  3
Conceptual
350
34
  3
Dim
350
35
  3
Facepattern
350
39
  3
Flat
350
2B
  3
FlatWithEdges
350
2C
  3
Gouraud
350
2D
  3
GouraudWithEdges
350
2E
  3
Linepattern
350
38
  3
Realistic
350
33
  3
Thicken
350
37
  0
LAYOUT
  5
1E
102
{ACAD_REACTORS
330
1A
102
}
330
1A
100
AcDbPlotSettings
  1

  2
none_device
  4

  6

 40
0.0
 41
0.0
 42
0.0
 43
0.0
 44
0.0
 45
0.0
 46
0.0
 47
0.0
 48
0.0
 49
0.0
140
0.0
141
0.0
142
1.0
143
1.0
 70
   688
 72
     0
 73
     0
 74
     5
  7

 75
    16
 76
     0
 77
     2
 78
   300
147
1.0
148
0.0
149
0.0
100
AcDbLayout
  1
Layout1
 70
     1
 71
     1
 10
0.0
 20
0.0
 11
12.0
 21
9.0
 12
0.0
 22
0.0
 32
0.0
 14
1.00000000000000E+20
 24
1.00000000000000E+20
 34
1.00000000000000E+20
 15
-1.00000000000000E+20
 25
-1.00000000000000E+20
 35
-1.00000000000000E+20
146
0.0
 13
0.0
 23
0.0
 33
0.0
 16
1.0
 26
0.0
 36
0.0
 17
0.0
 27
1.0
 37
0.0
 76
     0
330
1B
  0
LAYOUT
  5
26
102
{ACAD_REACTORS
330
1A
102
}
330
1A
100
AcDbPlotSettings
  1

  2
none_device
  4

  6

 40
0.0
 41
0.0
 42
0.0
 43
0.0
 44
0.0
 45
0.0
 46
0.0
 47
0.0
 48
0.0
 49
0.0
140
0.0
141
0.0
142
1.0
143
1.0
 70
   688
 72
     0
 73
     0
 74
     5
  7

 75
    16
 76
     0
 77
     2
 78
   300
147
1.0
148
0.0
149
0.0
100
AcDbLayout
  1
Layout2
 70
     1
 71
     2
 10
0.0
 20
0.0
 11
0.0
 21
0.0
 12
0.0
 22
0.0
 32
0.0
 14
0.0
 24
0.0
 34
0.0
 15
0.0
 25
0.0
 35
0.0
146
0.0
 13
0.0
 23
0.0
 33
0.0
 16
1.0
 26
0.0
 36
0.0
 17
0.0
 27
1.0
 37
0.0
 76
     0
330
23
  0
LAYOUT
  5
22
102
{ACAD_REACTORS
330
1A
102
}
330
1A
100
AcDbPlotSettings
  1

  2
none_device
  4

  6

 40
0.0
 41
0.0
 42
0.0
 43
0.0
 44
0.0
 45
0.0
 46
0.0
 47
0.0
 48
0.0
 49
0.0
140
0.0
141
0.0
142
1.0
143
1.0
 70
  1712
 72
     0
 73
     0
 74
     0
  7

 75
     0
 76
     0
 77
     2
 78
   300
147
1.0
148
0.0
149
0.0
100
AcDbLayout
  1
Model
 70
     1
 71
     0
 10
0.0
 20
0.0
 11
12.0
 21
9.0
 12
0.0
 22
0.0
 32
0.0
 14
-457.7082196961705
 24
-314.224989179649
 34
0.0
 15
-37.70821969617208
 25
-17.22498917964902
 35
0.0
146
0.0
 13
0.0
 23
0.0
 33
0.0
 16
1.0
 26
0.0
 36
0.0
 17
0.0
 27
1.0
 37
0.0
 76
     0
330
1F
331
29
  0
MATERIAL
  5
3D
102
{ACAD_REACTORS
330
3B
102
}
102
{ACAD_XDICTIONARY
360
573
102
}
330
3B
100
AcDbMaterial
  1
ByBlock
  0
MATERIAL
  5
3C
102
{ACAD_REACTORS
330
3B
102
}
102
{ACAD_XDICTIONARY
360
571
102
}
330
3B
100
AcDbMaterial
  1
ByLayer
  0
MATERIAL
  5
3E
102
{ACAD_REACTORS
330
3B
102
}
102
{ACAD_XDICTIONARY
360
575
102
}
330
3B
100
AcDbMaterial
  1
Global
  0
MLINESTYLE
  5
18
102
{ACAD_REACTORS
330
17
102
}
330
17
100
AcDbMlineStyle
  2
Standard
 70
     0
  3

 62
   256
 51
90.0
 52
90.0
 71
     2
 49
0.5
 62
   256
  6
BYLAYER
 49
-0.5
 62
   256
  6
BYLAYER
  0
ACDBPLACEHOLDER
  5
F
102
{ACAD_REACTORS
330
E
102
}
330
E
  0
VISUALSTYLE
  5
2F
102
{ACAD_REACTORS
330
2A
102
}
102
{ACAD_XDICTIONARY
360
559
102
}
330
2A
100
AcDbVisualStyle
  2
2dWireframe
 70
     4
 71
     0
 72
     2
 73
     0
 90
        0
 40
-0.6
 41
-30.0
 62
     5
 63
     7
421
 16777215
 74
     1
 91
        4
 64
     7
 65
   257
 75
     1
175
     1
 42
1.0
 92
        0
 66
   257
 43
1.0
 76
     1
 77
     6
 78
     2
 67
     7
 79
     5
170
     0
171
     0
290
     0
174
     0
 93
        1
 44
0.0
173
     0
291
     0
 45
0.0
1001
ACAD
1000
AcDbSavedByObjectVersion
1070
     0
  0
VISUALSTYLE
  5
31
102
{ACAD_REACTORS
330
2A
102
}
102
{ACAD_XDICTIONARY
360
55D
102
}
330
2A
100
AcDbVisualStyle
  2
3D Hidden
 70
     6
 71
     1
 72
     2
 73
     2
 90
        0
 40
-0.6
 41
-30.0
 62
     5
 63
     7
421
 16777215
 74
     2
 91
        2
 64
     7
 65
   257
 75
     2
175
     1
 42
40.0
 92
        0
 66
   257
 43
1.0
 76
     1
 77
     6
 78
     2
 67
     7
 79
     3
170
     0
171
     0
290
     0
174
     0
 93
        1
 44
0.0
173
     0
291
     0
 45
0.0
1001
ACAD
1000
AcDbSavedByObjectVersion
1070
     0
  0
VISUALSTYLE
  5
30
102
{ACAD_REACTORS
330
2A
102
}
102
{ACAD_XDICTIONARY
360
55B
102
}
330
2A
100
AcDbVisualStyle
  2
3dWireframe
 70
     5
 71
     0
 72
     2
 73
     0
 90
        0
 40
-0.6
 41
-30.0
 62
     5
 63
     7
421
 16777215
 74
     1
 91
        4
 64
     7
 65
   257
 75
     1
175
     1
 42
1.0
 92
        0
 66
   257
 43
1.0
 76
     1
 77
     6
 78
     2
 67
     7
 79
     5
170
     0
171
     0
290
     0
174
     0
 93
        1
 44
0.0
173
     0
291
     0
 45
0.0
1001
ACAD
1000
AcDbSavedByObjectVersion
1070
     0
  0
VISUALSTYLE
  5
32
102
{ACAD_REACTORS
330
2A
102
}
102
{ACAD_XDICTIONARY
360
55F
102
}
330
2A
100
AcDbVisualStyle
  2
Basic
 70
     7
 71
     1
 72
     0
 73
     1
 90
        0
 40
-0.6
 41
-30.0
 62
     5
 63
     7
421
 16777215
 74
     0
 91
        4
 64
     7
 65
   257
 75
     1
175
     1
 42
1.0
 92
        8
 66
     7
 43
1.0
 76
     1
 77
     6
 78
     2
 67
     7
 79
     5
170
     0
171
     0
290
     0
174
     0
 93
        1
 44
0.0
173
     0
291
     1
 45
0.0
1001
ACAD
1000
AcDbSavedByObjectVersion
1070
     0
  0
VISUALSTYLE
  5
36
102
{ACAD_REACTORS
330
2A
102
}
102
{ACAD_XDICTIONARY
360
567
102
}
330
2A
100
AcDbVisualStyle
  2
Brighten
 70
    12
 71
     2
 72
     2
 73
     0
 90
        0
 40
-0.6
 41
-30.0
 62
     5
 63
     7
421
 16777215
 74
     1
 91
        4
 64
     7
 65
   257
 75
     1
175
     1
 42
1.0
 92
        8
 66
     7
 43
1.0
 76
     1
 77
     6
 78
     2
 67
     7
 79
     5
170
     0
171
     0
290
     0
174
     0
 93
        1
 44
50.0
173
     0
291
     1
 45
0.0
1001
ACAD
1000
AcDbSavedByObjectVersion
1070
     0
  0
VISUALSTYLE
  5
3A
102
{ACAD_REACTORS
330
2A
102
}
102
{ACAD_XDICTIONARY
360
56F
102
}
330
2A
100
AcDbVisualStyle
  2
ColorChange
 70
    16
 71
     2
 72
     2
 73
     3
 90
        0
 40
-0.6
 41
-30.0
 62
     5
 63
     8
421
  8421504
 74
     1
 91
        4
 64
     7
 65
   257
 75
     1
175
     1
 42
1.0
 92
        8
 66
     8
424
  8421504
 43
1.0
 76
     1
 77
     6
 78
     2
 67
     7
 79
     5
170
     0
171
     0
290
     0
174
     0
 93
        1
 44
0.0
173
     0
291
     1
 45
0.0
1001
ACAD
1000
AcDbSavedByObjectVersion
1070
     0
  0
VISUALSTYLE
  5
34
102
{ACAD_REACTORS
330
2A
102
}
102
{ACAD_XDICTIONARY
360
563
102
}
330
2A
100
AcDbVisualStyle
  2
Conceptual
 70
     9
 71
     3
 72
     2
 73
     0
 90
        0
 40
-0.6
 41
-30.0
 62
     5
 63
     7
421
 16777215
 74
     2
 91
        2
 64
     7
 65
   257
 75
     1
175
     1
 42
40.0
 92
        8
 66
     7
 43
1.0
 76
     1
 77
     6
 78
     2
 67
     7
 79
     3
170
     0
171
     0
290
     0
174
     0
 93
        1
 44
0.0
173
     0
291
     0
 45
0.0
1001
ACAD
1000
AcDbSavedByObjectVersion
1070
     0
  0
VISUALSTYLE
  5
35
102
{ACAD_REACTORS
330
2A
102
}
102
{ACAD_XDICTIONARY
360
565
102
}
330
2A
100
AcDbVisualStyle
  2
Dim
 70
    11
 71
     2
 72
     2
 73
     0
 90
        0
 40
-0.6
 41
-30.0
 62
     5
 63
     7
421
 16777215
 74
     1
 91
        4
 64
     7
 65
   257
 75
     1
175
     1
 42
1.0
 92
        8
 66
     7
 43
1.0
 76
     1
 77
     6
 78
     2
 67
     7
 79
     5
170
     0
171
     0
290
     0
174
     0
 93
        1
 44
-50.0
173
     0
291
     1
 45
0.0
1001
ACAD
1000
AcDbSavedByObjectVersion
1070
     0
  0
VISUALSTYLE
  5
39
102
{ACAD_REACTORS
330
2A
102
}
102
{ACAD_XDICTIONARY
360
56D
102
}
330
2A
100
AcDbVisualStyle
  2
Facepattern
 70
    15
 71
     2
 72
     2
 73
     0
 90
        0
 40
-0.6
 41
-30.0
 62
     5
 63
     7
421
 16777215
 74
     1
 91
        4
 64
     7
 65
   257
 75
     1
175
     1
 42
1.0
 92
        8
 66
     7
 43
1.0
 76
     1
 77
     6
 78
     2
 67
     7
 79
     5
170
     0
171
     0
290
     0
174
     0
 93
        1
 44
0.0
173
     0
291
     1
 45
0.0
1001
ACAD
1000
AcDbSavedByObjectVersion
1070
     0
  0
VISUALSTYLE
  5
2B
102
{ACAD_REACTORS
330
2A
102
}
102
{ACAD_XDICTIONARY
360
551
102
}
330
2A
100
AcDbVisualStyle
  2
Flat
 70
     0
 71
     2
 72
     1
 73
     1
 90
        2
 40
-0.6
 41
30.0
 62
     5
 63
     7
421
 16777215
 74
     0
 91
        4
 64
     7
 65
   257
 75
     1
175
     1
 42
1.0
 92
        8
 66
     7
 43
1.0
 76
     1
 77
     6
 78
     2
 67
     7
 79
     5
170
     0
171
     0
290
     0
174
     0
 93
       13
 44
0.0
173
     0
291
     1
 45
0.0
1001
ACAD
1000
AcDbSavedByObjectVersion
1070
     0
  0
VISUALSTYLE
  5
2C
102
{ACAD_REACTORS
330
2A
102
}
102
{ACAD_XDICTIONARY
360
553
102
}
330
2A
100
AcDbVisualStyle
  2
FlatWithEdges
 70
     1
 71
     2
 72
     1
 73
     1
 90
        2
 40
-0.6
 41
30.0
 62
     5
 63
     7
421
 16777215
 74
     1
 91
        4
 64
     7
 65
   257
 75
     1
175
     1
 42
1.0
 92
        0
 66
   257
 43
1.0
 76
     1
 77
     6
 78
     2
 67
     7
 79
     5
170
     0
171
     0
290
     0
174
     0
 93
       13
 44
0.0
173
     0
291
     1
 45
0.0
1001
ACAD
1000
AcDbSavedByObjectVersion
1070
     0
  0
VISUALSTYLE
  5
2D
102
{ACAD_REACTORS
330
2A
102
}
102
{ACAD_XDICTIONARY
360
555
102
}
330
2A
100
AcDbVisualStyle
  2
Gouraud
 70
     2
 71
     2
 72
     2
 73
     1
 90
        2
 40
-0.6
 41
30.0
 62
     5
 63
     7
421
 16777215
 74
     0
 91
        4
 64
     7
 65
   257
 75
     1
175
     1
 42
1.0
 92
        0
 66
     7
 43
1.0
 76
     1
 77
     6
 78
     2
 67
     7
 79
     5
170
     0
171
     0
290
     0
174
     0
 93
       13
 44
0.0
173
     0
291
     1
 45
0.0
1001
ACAD
1000
AcDbSavedByObjectVersion
1070
     0
  0
VISUALSTYLE
  5
2E
102
{ACAD_REACTORS
330
2A
102
}
102
{ACAD_XDICTIONARY
360
557
102
}
330
2A
100
AcDbVisualStyle
  2
GouraudWithEdges
 70
     3
 71
     2
 72
     2
 73
     1
 90
        2
 40
-0.6
 41
30.0
 62
     5
 63
     7
421
 16777215
 74
     1
 91
        4
 64
     7
 65
   257
 75
     1
175
     1
 42
1.0
 92
        0
 66
   257
 43
1.0
 76
     1
 77
     6
 78
     2
 67
     7
 79
     5
170
     0
171
     0
290
     0
174
     0
 93
       13
 44
0.0
173
     0
291
     1
 45
0.0
1001
ACAD
1000
AcDbSavedByObjectVersion
1070
     0
  0
VISUALSTYLE
  5
38
102
{ACAD_REACTORS
330
2A
102
}
102
{ACAD_XDICTIONARY
360
56B
102
}
330
2A
100
AcDbVisualStyle
  2
Linepattern
 70
    14
 71
     2
 72
     2
 73
     0
 90
        0
 40
-0.6
 41
-30.0
 62
     5
 63
     7
421
 16777215
 74
     1
 91
        4
 64
     7
 65
   257
 75
     7
175
     7
 42
1.0
 92
        8
 66
     7
 43
1.0
 76
     1
 77
     6
 78
     2
 67
     7
 79
     5
170
     0
171
     0
290
     0
174
     0
 93
        1
 44
0.0
173
     0
291
     1
 45
0.0
1001
ACAD
1000
AcDbSavedByObjectVersion
1070
     0
  0
VISUALSTYLE
  5
33
102
{ACAD_REACTORS
330
2A
102
}
102
{ACAD_XDICTIONARY
360
561
102
}
330
2A
100
AcDbVisualStyle
  2
Realistic
 70
     8
 71
     2
 72
     2
 73
     0
 90
        0
 40
-0.6
 41
-30.0
 62
     5
 63
     7
421
 16777215
 74
     1
 91
        0
 64
     7
 65
   257
 75
     1
175
     1
 42
1.0
 92
        8
 66
     8
424
  7895160
 43
1.0
 76
     1
 77
     6
 78
     2
 67
     7
 79
     5
170
     0
171
     0
290
     0
174
     0
 93
       13
 44
0.0
173
     0
291
     0
 45
0.0
1001
ACAD
1000
AcDbSavedByObjectVersion
1070
     0
  0
VISUALSTYLE
  5
37
102
{ACAD_REACTORS
330
2A
102
}
102
{ACAD_XDICTIONARY
360
569
102
}
330
2A
100
AcDbVisualStyle
  2
Thicken
 70
    13
 71
     2
 72
     2
 73
     0
 90
        0
 40
-0.6
 41
-30.0
 62
     5
 63
     7
421
 16777215
 74
     1
 91
        4
 64
     7
 65
   257
 75
     1
175
     1
 42
1.0
 92
       12
 66
     7
 43
1.0
 76
     1
 77
     6
 78
     2
 67
     7
 79
     5
170
     0
171
     0
290
     0
174
     0
 93
        1
 44
0.0
173
     0
291
     1
 45
0.0
1001
ACAD
1000
AcDbSavedByObjectVersion
1070
     0
  0
DICTIONARY
  5
573
330
3D
100
AcDbDictionary
280
     1
281
     1
  3
ACAD_XREC_ROUNDTRIP
360
574
  0
DICTIONARY
  5
571
330
3C
100
AcDbDictionary
280
     1
281
     1
  3
ACAD_XREC_ROUNDTRIP
360
572
  0
DICTIONARY
  5
575
330
3E
100
AcDbDictionary
280
     1
281
     1
  3
ACAD_XREC_ROUNDTRIP
360
576
  0
DICTIONARY
  5
559
330
2F
100
AcDbDictionary
280
     1
281
     1
  3
ACAD_XREC_ROUNDTRIP
360
55A
  0
DICTIONARY
  5
55D
330
31
100
AcDbDictionary
280
     1
281
     1
  3
ACAD_XREC_ROUNDTRIP
360
55E
  0
DICTIONARY
  5
55B
330
30
100
AcDbDictionary
280
     1
281
     1
  3
ACAD_XREC_ROUNDTRIP
360
55C
  0
DICTIONARY
  5
55F
330
32
100
AcDbDictionary
280
     1
281
     1
  3
ACAD_XREC_ROUNDTRIP
360
560
  0
DICTIONARY
  5
567
330
36
100
AcDbDictionary
280
     1
281
     1
  3
ACAD_XREC_ROUNDTRIP
360
568
  0
DICTIONARY
  5
56F
330
3A
100
AcDbDictionary
280
     1
281
     1
  3
ACAD_XREC_ROUNDTRIP
360
570
  0
DICTIONARY
  5
563
330
34
100
AcDbDictionary
280
     1
281
     1
  3
ACAD_XREC_ROUNDTRIP
360
564
  0
DICTIONARY
  5
565
330
35
100
AcDbDictionary
280
     1
281
     1
  3
ACAD_XREC_ROUNDTRIP
360
566
  0
DICTIONARY
  5
56D
330
39
100
AcDbDictionary
280
     1
281
     1
  3
ACAD_XREC_ROUNDTRIP
360
56E
  0
DICTIONARY
  5
551
330
2B
100
AcDbDictionary
280
     1
281
     1
  3
ACAD_XREC_ROUNDTRIP
360
552
  0
DICTIONARY
  5
553
330
2C
100
AcDbDictionary
280
     1
281
     1
  3
ACAD_XREC_ROUNDTRIP
360
554
  0
DICTIONARY
  5
555
330
2D
100
AcDbDictionary
280
     1
281
     1
  3
ACAD_XREC_ROUNDTRIP
360
556
  0
DICTIONARY
  5
557
330
2E
100
AcDbDictionary
280
     1
281
     1
  3
ACAD_XREC_ROUNDTRIP
360
558
  0
DICTIONARY
  5
56B
330
38
100
AcDbDictionary
280
     1
281
     1
  3
ACAD_XREC_ROUNDTRIP
360
56C
  0
DICTIONARY
  5
561
330
33
100
AcDbDictionary
280
     1
281
     1
  3
ACAD_XREC_ROUNDTRIP
360
562
  0
DICTIONARY
  5
569
330
37
100
AcDbDictionary
280
     1
281
     1
  3
ACAD_XREC_ROUNDTRIP
360
56A
  0
XRECORD
  5
574
102
{ACAD_REACTORS
330
573
102
}
330
573
100
AcDbXrecord
280
     1
102
MATERIAL
148
0.0
149
0.0
149
0.0
 93
        0
 94
      127
282
     0
 72
     1
 77
     1
171
     1
175
     1
179
     1
273
     0
  0
XRECORD
  5
572
102
{ACAD_REACTORS
330
571
102
}
330
571
100
AcDbXrecord
280
     1
102
MATERIAL
148
0.0
149
0.0
149
0.0
 93
        0
 94
      127
282
     0
 72
     1
 77
     1
171
     1
175
     1
179
     1
273
     0
  0
XRECORD
  5
576
102
{ACAD_REACTORS
330
575
102
}
330
575
100
AcDbXrecord
280
     1
102
MATERIAL
148
0.0
149
0.0
149
0.0
 93
        0
 94
      127
282
     0
 72
     1
 77
     1
171
     1
175
     1
179
     1
273
     0
  0
XRECORD
  5
55A
102
{ACAD_REACTORS
330
559
102
}
330
559
100
AcDbXrecord
280
     1
102
RTVSPropertyOp0
 70
     1
102
RTVSPropertyOp1
 70
     1
102
RTVSPropertyOp2
 70
     1
102
RTVSPropertyOp3
 70
     1
102
RTVSPropertyOp4
 70
     1
102
RTVSPropertyOp5
 70
     1
102
RTVSPropertyOp6
 70
     1
102
RTVSPropertyOp7
 70
     1
102
RTVSPropertyOp8
 70
     1
102
RTVSPropertyOp9
 70
     1
102
RTVSPropertyOp10
 70
     1
102
RTVSPropertyOp11
 70
     1
102
RTVSPropertyOp12
 70
     1
102
RTVSPropertyOp13
 70
     1
102
RTVSPropertyOp14
 70
     1
102
RTVSPropertyOp15
 70
     1
102
RTVSPropertyOp16
 70
     1
102
RTVSPropertyOp17
 70
     1
102
RTVSPropertyOp18
 70
     1
102
RTVSPropertyOp19
 70
     1
102
RTVSPropertyOp20
 70
     1
102
RTVSPropertyOp21
 70
     1
102
RTVSPropertyOp22
 70
     1
102
RTVSPropertyOp23
 70
     1
102
RTVSPropertyOp24
 70
     1
102
RTVSPropertyOp25
 70
     1
102
RTVSPropertyOp26
 70
     1
102
RTVSPropertyOp27
 70
     1
102
RTVSPropertyOp28
 70
     1
102
RTVSPropertyOp29
 70
     1
102
RTVSPropertyOp30
 70
     1
102
RTVSPropertyOp31
 70
     1
102
RTVSPropertyOp32
 70
     1
  0
XRECORD
  5
55E
102
{ACAD_REACTORS
330
55D
102
}
330
55D
100
AcDbXrecord
280
     1
102
RTVSPropertyOp0
 70
     1
102
RTVSPropertyOp1
 70
     1
102
RTVSPropertyOp2
 70
     1
102
RTVSPropertyOp3
 70
     1
102
RTVSPropertyOp4
 70
     1
102
RTVSPropertyOp5
 70
     1
102
RTVSPropertyOp6
 70
     1
102
RTVSPropertyOp7
 70
     1
102
RTVSPropertyOp8
 70
     1
102
RTVSPropertyOp9
 70
     1
102
RTVSPropertyOp10
 70
     1
102
RTVSPropertyOp11
 70
     1
102
RTVSPropertyOp12
 70
     1
102
RTVSPropertyOp13
 70
     1
102
RTVSPropertyOp14
 70
     1
102
RTVSPropertyOp15
 70
     1
102
RTVSPropertyOp16
 70
     1
102
RTVSPropertyOp17
 70
     1
102
RTVSPropertyOp18
 70
     1
102
RTVSPropertyOp19
 70
     1
102
RTVSPropertyOp20
 70
     1
102
RTVSPropertyOp21
 70
     1
102
RTVSPropertyOp22
 70
     1
102
RTVSPropertyOp23
 70
     1
102
RTVSPropertyOp24
 70
     1
102
RTVSPropertyOp25
 70
     1
102
RTVSPropertyOp26
 70
     1
102
RTVSPropertyOp27
 70
     1
102
RTVSPropertyOp28
 70
     1
102
RTVSPropertyOp29
 70
     1
102
RTVSPropertyOp30
 70
     1
102
RTVSPropertyOp31
 70
     1
102
RTVSPropertyOp32
 70
     1
  0
XRECORD
  5
55C
102
{ACAD_REACTORS
330
55B
102
}
330
55B
100
AcDbXrecord
280
     1
102
RTVSPropertyOp0
 70
     1
102
RTVSPropertyOp1
 70
     1
102
RTVSPropertyOp2
 70
     1
102
RTVSPropertyOp3
 70
     1
102
RTVSPropertyOp4
 70
     1
102
RTVSPropertyOp5
 70
     1
102
RTVSPropertyOp6
 70
     1
102
RTVSPropertyOp7
 70
     1
102
RTVSPropertyOp8
 70
     1
102
RTVSPropertyOp9
 70
     1
102
RTVSPropertyOp10
 70
     1
102
RTVSPropertyOp11
 70
     1
102
RTVSPropertyOp12
 70
     1
102
RTVSPropertyOp13
 70
     1
102
RTVSPropertyOp14
 70
     1
102
RTVSPropertyOp15
 70
     1
102
RTVSPropertyOp16
 70
     1
102
RTVSPropertyOp17
 70
     1
102
RTVSPropertyOp18
 70
     1
102
RTVSPropertyOp19
 70
     1
102
RTVSPropertyOp20
 70
     1
102
RTVSPropertyOp21
 70
     1
102
RTVSPropertyOp22
 70
     1
102
RTVSPropertyOp23
 70
     1
102
RTVSPropertyOp24
 70
     1
102
RTVSPropertyOp25
 70
     1
102
RTVSPropertyOp26
 70
     1
102
RTVSPropertyOp27
 70
     1
102
RTVSPropertyOp28
 70
     1
102
RTVSPropertyOp29
 70
     1
102
RTVSPropertyOp30
 70
     1
102
RTVSPropertyOp31
 70
     1
102
RTVSPropertyOp32
 70
     1
  0
XRECORD
  5
560
102
{ACAD_REACTORS
330
55F
102
}
330
55F
100
AcDbXrecord
280
     1
102
RTVSPropertyOp0
 70
     1
102
RTVSPropertyOp1
 70
     1
102
RTVSPropertyOp2
 70
     1
102
RTVSPropertyOp3
 70
     1
102
RTVSPropertyOp4
 70
     1
102
RTVSPropertyOp5
 70
     1
102
RTVSPropertyOp6
 70
     1
102
RTVSPropertyOp7
 70
     1
102
RTVSPropertyOp8
 70
     1
102
RTVSPropertyOp9
 70
     1
102
RTVSPropertyOp10
 70
     1
102
RTVSPropertyOp11
 70
     1
102
RTVSPropertyOp12
 70
     1
102
RTVSPropertyOp13
 70
     1
102
RTVSPropertyOp14
 70
     1
102
RTVSPropertyOp15
 70
     1
102
RTVSPropertyOp16
 70
     1
102
RTVSPropertyOp17
 70
     1
102
RTVSPropertyOp18
 70
     1
102
RTVSPropertyOp19
 70
     1
102
RTVSPropertyOp20
 70
     1
102
RTVSPropertyOp21
 70
     1
102
RTVSPropertyOp22
 70
     1
102
RTVSPropertyOp23
 70
     1
102
RTVSPropertyOp24
 70
     1
102
RTVSPropertyOp25
 70
     1
102
RTVSPropertyOp26
 70
     1
102
RTVSPropertyOp27
 70
     1
102
RTVSPropertyOp28
 70
     1
102
RTVSPropertyOp29
 70
     1
102
RTVSPropertyOp30
 70
     1
102
RTVSPropertyOp31
 70
     1
102
RTVSPropertyOp32
 70
     1
  0
XRECORD
  5
568
102
{ACAD_REACTORS
330
567
102
}
330
567
100
AcDbXrecord
280
     1
102
RTVSPropertyOp0
 70
     1
102
RTVSPropertyOp1
 70
     1
102
RTVSPropertyOp2
 70
     1
102
RTVSPropertyOp3
 70
     1
102
RTVSPropertyOp4
 70
     1
102
RTVSPropertyOp5
 70
     1
102
RTVSPropertyOp6
 70
     1
102
RTVSPropertyOp7
 70
     1
102
RTVSPropertyOp8
 70
     1
102
RTVSPropertyOp9
 70
     1
102
RTVSPropertyOp10
 70
     1
102
RTVSPropertyOp11
 70
     1
102
RTVSPropertyOp12
 70
     1
102
RTVSPropertyOp13
 70
     1
102
RTVSPropertyOp14
 70
     1
102
RTVSPropertyOp15
 70
     1
102
RTVSPropertyOp16
 70
     1
102
RTVSPropertyOp17
 70
     1
102
RTVSPropertyOp18
 70
     1
102
RTVSPropertyOp19
 70
     1
102
RTVSPropertyOp20
 70
     1
102
RTVSPropertyOp21
 70
     1
102
RTVSPropertyOp22
 70
     1
102
RTVSPropertyOp23
 70
     1
102
RTVSPropertyOp24
 70
     1
102
RTVSPropertyOp25
 70
     1
102
RTVSPropertyOp26
 70
     1
102
RTVSPropertyOp27
 70
     1
102
RTVSPropertyOp28
 70
     1
102
RTVSPropertyOp29
 70
     1
102
RTVSPropertyOp30
 70
     1
102
RTVSPropertyOp31
 70
     1
102
RTVSPropertyOp32
 70
     1
  0
XRECORD
  5
570
102
{ACAD_REACTORS
330
56F
102
}
330
56F
100
AcDbXrecord
280
     1
102
RTVSPropertyOp0
 70
     1
102
RTVSPropertyOp1
 70
     1
102
RTVSPropertyOp2
 70
     1
102
RTVSPropertyOp3
 70
     1
102
RTVSPropertyOp4
 70
     1
102
RTVSPropertyOp5
 70
     1
102
RTVSPropertyOp6
 70
     1
102
RTVSPropertyOp7
 70
     1
102
RTVSPropertyOp8
 70
     1
102
RTVSPropertyOp9
 70
     1
102
RTVSPropertyOp10
 70
     1
102
RTVSPropertyOp11
 70
     1
102
RTVSPropertyOp12
 70
     1
102
RTVSPropertyOp13
 70
     1
102
RTVSPropertyOp14
 70
     1
102
RTVSPropertyOp15
 70
     1
102
RTVSPropertyOp16
 70
     1
102
RTVSPropertyOp17
 70
     1
102
RTVSPropertyOp18
 70
     1
102
RTVSPropertyOp19
 70
     1
102
RTVSPropertyOp20
 70
     1
102
RTVSPropertyOp21
 70
     1
102
RTVSPropertyOp22
 70
     1
102
RTVSPropertyOp23
 70
     1
102
RTVSPropertyOp24
 70
     1
102
RTVSPropertyOp25
 70
     1
102
RTVSPropertyOp26
 70
     1
102
RTVSPropertyOp27
 70
     1
102
RTVSPropertyOp28
 70
     1
102
RTVSPropertyOp29
 70
     1
102
RTVSPropertyOp30
 70
     1
102
RTVSPropertyOp31
 70
     1
102
RTVSPropertyOp32
 70
     1
  0
XRECORD
  5
564
102
{ACAD_REACTORS
330
563
102
}
330
563
100
AcDbXrecord
280
     1
102
RTVSPropertyOp0
 70
     1
102
RTVSPropertyOp1
 70
     1
102
RTVSPropertyOp2
 70
     1
102
RTVSPropertyOp3
 70
     1
102
RTVSPropertyOp4
 70
     1
102
RTVSPropertyOp5
 70
     1
102
RTVSPropertyOp6
 70
     1
102
RTVSPropertyOp7
 70
     1
102
RTVSPropertyOp8
 70
     1
102
RTVSPropertyOp9
 70
     1
102
RTVSPropertyOp10
 70
     1
102
RTVSPropertyOp11
 70
     1
102
RTVSPropertyOp12
 70
     1
102
RTVSPropertyOp13
 70
     1
102
RTVSPropertyOp14
 70
     1
102
RTVSPropertyOp15
 70
     1
102
RTVSPropertyOp16
 70
     1
102
RTVSPropertyOp17
 70
     1
102
RTVSPropertyOp18
 70
     1
102
RTVSPropertyOp19
 70
     1
102
RTVSPropertyOp20
 70
     1
102
RTVSPropertyOp21
 70
     1
102
RTVSPropertyOp22
 70
     1
102
RTVSPropertyOp23
 70
     1
102
RTVSPropertyOp24
 70
     1
102
RTVSPropertyOp25
 70
     1
102
RTVSPropertyOp26
 70
     1
102
RTVSPropertyOp27
 70
     1
102
RTVSPropertyOp28
 70
     1
102
RTVSPropertyOp29
 70
     1
102
RTVSPropertyOp30
 70
     1
102
RTVSPropertyOp31
 70
     1
102
RTVSPropertyOp32
 70
     1
  0
XRECORD
  5
566
102
{ACAD_REACTORS
330
565
102
}
330
565
100
AcDbXrecord
280
     1
102
RTVSPropertyOp0
 70
     1
102
RTVSPropertyOp1
 70
     1
102
RTVSPropertyOp2
 70
     1
102
RTVSPropertyOp3
 70
     1
102
RTVSPropertyOp4
 70
     1
102
RTVSPropertyOp5
 70
     1
102
RTVSPropertyOp6
 70
     1
102
RTVSPropertyOp7
 70
     1
102
RTVSPropertyOp8
 70
     1
102
RTVSPropertyOp9
 70
     1
102
RTVSPropertyOp10
 70
     1
102
RTVSPropertyOp11
 70
     1
102
RTVSPropertyOp12
 70
     1
102
RTVSPropertyOp13
 70
     1
102
RTVSPropertyOp14
 70
     1
102
RTVSPropertyOp15
 70
     1
102
RTVSPropertyOp16
 70
     1
102
RTVSPropertyOp17
 70
     1
102
RTVSPropertyOp18
 70
     1
102
RTVSPropertyOp19
 70
     1
102
RTVSPropertyOp20
 70
     1
102
RTVSPropertyOp21
 70
     1
102
RTVSPropertyOp22
 70
     1
102
RTVSPropertyOp23
 70
     1
102
RTVSPropertyOp24
 70
     1
102
RTVSPropertyOp25
 70
     1
102
RTVSPropertyOp26
 70
     1
102
RTVSPropertyOp27
 70
     1
102
RTVSPropertyOp28
 70
     1
102
RTVSPropertyOp29
 70
     1
102
RTVSPropertyOp30
 70
     1
102
RTVSPropertyOp31
 70
     1
102
RTVSPropertyOp32
 70
     1
  0
XRECORD
  5
56E
102
{ACAD_REACTORS
330
56D
102
}
330
56D
100
AcDbXrecord
280
     1
102
RTVSPropertyOp0
 70
     1
102
RTVSPropertyOp1
 70
     1
102
RTVSPropertyOp2
 70
     1
102
RTVSPropertyOp3
 70
     1
102
RTVSPropertyOp4
 70
     1
102
RTVSPropertyOp5
 70
     1
102
RTVSPropertyOp6
 70
     1
102
RTVSPropertyOp7
 70
     1
102
RTVSPropertyOp8
 70
     1
102
RTVSPropertyOp9
 70
     1
102
RTVSPropertyOp10
 70
     1
102
RTVSPropertyOp11
 70
     1
102
RTVSPropertyOp12
 70
     1
102
RTVSPropertyOp13
 70
     1
102
RTVSPropertyOp14
 70
     1
102
RTVSPropertyOp15
 70
     1
102
RTVSPropertyOp16
 70
     1
102
RTVSPropertyOp17
 70
     1
102
RTVSPropertyOp18
 70
     1
102
RTVSPropertyOp19
 70
     1
102
RTVSPropertyOp20
 70
     1
102
RTVSPropertyOp21
 70
     1
102
RTVSPropertyOp22
 70
     1
102
RTVSPropertyOp23
 70
     1
102
RTVSPropertyOp24
 70
     1
102
RTVSPropertyOp25
 70
     1
102
RTVSPropertyOp26
 70
     1
102
RTVSPropertyOp27
 70
     1
102
RTVSPropertyOp28
 70
     1
102
RTVSPropertyOp29
 70
     1
102
RTVSPropertyOp30
 70
     1
102
RTVSPropertyOp31
 70
     1
102
RTVSPropertyOp32
 70
     1
  0
XRECORD
  5
552
102
{ACAD_REACTORS
330
551
102
}
330
551
100
AcDbXrecord
280
     1
102
RTVSPropertyOp0
 70
     1
102
RTVSPropertyOp1
 70
     1
102
RTVSPropertyOp2
 70
     1
102
RTVSPropertyOp3
 70
     1
102
RTVSPropertyOp4
 70
     1
102
RTVSPropertyOp5
 70
     1
102
RTVSPropertyOp6
 70
     1
102
RTVSPropertyOp7
 70
     1
102
RTVSPropertyOp8
 70
     1
102
RTVSPropertyOp9
 70
     1
102
RTVSPropertyOp10
 70
     1
102
RTVSPropertyOp11
 70
     1
102
RTVSPropertyOp12
 70
     1
102
RTVSPropertyOp13
 70
     1
102
RTVSPropertyOp14
 70
     1
102
RTVSPropertyOp15
 70
     1
102
RTVSPropertyOp16
 70
     1
102
RTVSPropertyOp17
 70
     1
102
RTVSPropertyOp18
 70
     1
102
RTVSPropertyOp19
 70
     1
102
RTVSPropertyOp20
 70
     1
102
RTVSPropertyOp21
 70
     1
102
RTVSPropertyOp22
 70
     1
102
RTVSPropertyOp23
 70
     1
102
RTVSPropertyOp24
 70
     1
102
RTVSPropertyOp25
 70
     1
102
RTVSPropertyOp26
 70
     1
102
RTVSPropertyOp27
 70
     1
102
RTVSPropertyOp28
 70
     1
102
RTVSPropertyOp29
 70
     1
102
RTVSPropertyOp30
 70
     1
102
RTVSPropertyOp31
 70
     1
102
RTVSPropertyOp32
 70
     1
  0
XRECORD
  5
554
102
{ACAD_REACTORS
330
553
102
}
330
553
100
AcDbXrecord
280
     1
102
RTVSPropertyOp0
 70
     1
102
RTVSPropertyOp1
 70
     1
102
RTVSPropertyOp2
 70
     1
102
RTVSPropertyOp3
 70
     1
102
RTVSPropertyOp4
 70
     1
102
RTVSPropertyOp5
 70
     1
102
RTVSPropertyOp6
 70
     1
102
RTVSPropertyOp7
 70
     1
102
RTVSPropertyOp8
 70
     1
102
RTVSPropertyOp9
 70
     1
102
RTVSPropertyOp10
 70
     1
102
RTVSPropertyOp11
 70
     1
102
RTVSPropertyOp12
 70
     1
102
RTVSPropertyOp13
 70
     1
102
RTVSPropertyOp14
 70
     1
102
RTVSPropertyOp15
 70
     1
102
RTVSPropertyOp16
 70
     1
102
RTVSPropertyOp17
 70
     1
102
RTVSPropertyOp18
 70
     1
102
RTVSPropertyOp19
 70
     1
102
RTVSPropertyOp20
 70
     1
102
RTVSPropertyOp21
 70
     1
102
RTVSPropertyOp22
 70
     1
102
RTVSPropertyOp23
 70
     1
102
RTVSPropertyOp24
 70
     1
102
RTVSPropertyOp25
 70
     1
102
RTVSPropertyOp26
 70
     1
102
RTVSPropertyOp27
 70
     1
102
RTVSPropertyOp28
 70
     1
102
RTVSPropertyOp29
 70
     1
102
RTVSPropertyOp30
 70
     1
102
RTVSPropertyOp31
 70
     1
102
RTVSPropertyOp32
 70
     1
  0
XRECORD
  5
556
102
{ACAD_REACTORS
330
555
102
}
330
555
100
AcDbXrecord
280
     1
102
RTVSPropertyOp0
 70
     1
102
RTVSPropertyOp1
 70
     1
102
RTVSPropertyOp2
 70
     1
102
RTVSPropertyOp3
 70
     1
102
RTVSPropertyOp4
 70
     1
102
RTVSPropertyOp5
 70
     1
102
RTVSPropertyOp6
 70
     1
102
RTVSPropertyOp7
 70
     1
102
RTVSPropertyOp8
 70
     1
102
RTVSPropertyOp9
 70
     1
102
RTVSPropertyOp10
 70
     1
102
RTVSPropertyOp11
 70
     1
102
RTVSPropertyOp12
 70
     1
102
RTVSPropertyOp13
 70
     1
102
RTVSPropertyOp14
 70
     1
102
RTVSPropertyOp15
 70
     1
102
RTVSPropertyOp16
 70
     1
102
RTVSPropertyOp17
 70
     1
102
RTVSPropertyOp18
 70
     1
102
RTVSPropertyOp19
 70
     1
102
RTVSPropertyOp20
 70
     1
102
RTVSPropertyOp21
 70
     1
102
RTVSPropertyOp22
 70
     1
102
RTVSPropertyOp23
 70
     1
102
RTVSPropertyOp24
 70
     1
102
RTVSPropertyOp25
 70
     1
102
RTVSPropertyOp26
 70
     1
102
RTVSPropertyOp27
 70
     1
102
RTVSPropertyOp28
 70
     1
102
RTVSPropertyOp29
 70
     1
102
RTVSPropertyOp30
 70
     1
102
RTVSPropertyOp31
 70
     1
102
RTVSPropertyOp32
 70
     1
  0
XRECORD
  5
558
102
{ACAD_REACTORS
330
557
102
}
330
557
100
AcDbXrecord
280
     1
102
RTVSPropertyOp0
 70
     1
102
RTVSPropertyOp1
 70
     1
102
RTVSPropertyOp2
 70
     1
102
RTVSPropertyOp3
 70
     1
102
RTVSPropertyOp4
 70
     1
102
RTVSPropertyOp5
 70
     1
102
RTVSPropertyOp6
 70
     1
102
RTVSPropertyOp7
 70
     1
102
RTVSPropertyOp8
 70
     1
102
RTVSPropertyOp9
 70
     1
102
RTVSPropertyOp10
 70
     1
102
RTVSPropertyOp11
 70
     1
102
RTVSPropertyOp12
 70
     1
102
RTVSPropertyOp13
 70
     1
102
RTVSPropertyOp14
 70
     1
102
RTVSPropertyOp15
 70
     1
102
RTVSPropertyOp16
 70
     1
102
RTVSPropertyOp17
 70
     1
102
RTVSPropertyOp18
 70
     1
102
RTVSPropertyOp19
 70
     1
102
RTVSPropertyOp20
 70
     1
102
RTVSPropertyOp21
 70
     1
102
RTVSPropertyOp22
 70
     1
102
RTVSPropertyOp23
 70
     1
102
RTVSPropertyOp24
 70
     1
102
RTVSPropertyOp25
 70
     1
102
RTVSPropertyOp26
 70
     1
102
RTVSPropertyOp27
 70
     1
102
RTVSPropertyOp28
 70
     1
102
RTVSPropertyOp29
 70
     1
102
RTVSPropertyOp30
 70
     1
102
RTVSPropertyOp31
 70
     1
102
RTVSPropertyOp32
 70
     1
  0
XRECORD
  5
56C
102
{ACAD_REACTORS
330
56B
102
}
330
56B
100
AcDbXrecord
280
     1
102
RTVSPropertyOp0
 70
     1
102
RTVSPropertyOp1
 70
     1
102
RTVSPropertyOp2
 70
     1
102
RTVSPropertyOp3
 70
     1
102
RTVSPropertyOp4
 70
     1
102
RTVSPropertyOp5
 70
     1
102
RTVSPropertyOp6
 70
     1
102
RTVSPropertyOp7
 70
     1
102
RTVSPropertyOp8
 70
     1
102
RTVSPropertyOp9
 70
     1
102
RTVSPropertyOp10
 70
     1
102
RTVSPropertyOp11
 70
     1
102
RTVSPropertyOp12
 70
     1
102
RTVSPropertyOp13
 70
     1
102
RTVSPropertyOp14
 70
     1
102
RTVSPropertyOp15
 70
     1
102
RTVSPropertyOp16
 70
     1
102
RTVSPropertyOp17
 70
     1
102
RTVSPropertyOp18
 70
     1
102
RTVSPropertyOp19
 70
     1
102
RTVSPropertyOp20
 70
     1
102
RTVSPropertyOp21
 70
     1
102
RTVSPropertyOp22
 70
     1
102
RTVSPropertyOp23
 70
     1
102
RTVSPropertyOp24
 70
     1
102
RTVSPropertyOp25
 70
     1
102
RTVSPropertyOp26
 70
     1
102
RTVSPropertyOp27
 70
     1
102
RTVSPropertyOp28
 70
     1
102
RTVSPropertyOp29
 70
     1
102
RTVSPropertyOp30
 70
     1
102
RTVSPropertyOp31
 70
     1
102
RTVSPropertyOp32
 70
     1
  0
XRECORD
  5
562
102
{ACAD_REACTORS
330
561
102
}
330
561
100
AcDbXrecord
280
     1
102
RTVSPropertyOp0
 70
     1
102
RTVSPropertyOp1
 70
     1
102
RTVSPropertyOp2
 70
     1
102
RTVSPropertyOp3
 70
     1
102
RTVSPropertyOp4
 70
     1
102
RTVSPropertyOp5
 70
     1
102
RTVSPropertyOp6
 70
     1
102
RTVSPropertyOp7
 70
     1
102
RTVSPropertyOp8
 70
     1
102
RTVSPropertyOp9
 70
     1
102
RTVSPropertyOp10
 70
     1
102
RTVSPropertyOp11
 70
     1
102
RTVSPropertyOp12
 70
     1
102
RTVSPropertyOp13
 70
     1
102
RTVSPropertyOp14
 70
     1
102
RTVSPropertyOp15
 70
     1
102
RTVSPropertyOp16
 70
     1
102
RTVSPropertyOp17
 70
     1
102
RTVSPropertyOp18
 70
     1
102
RTVSPropertyOp19
 70
     1
102
RTVSPropertyOp20
 70
     1
102
RTVSPropertyOp21
 70
     1
102
RTVSPropertyOp22
 70
     1
102
RTVSPropertyOp23
 70
     1
102
RTVSPropertyOp24
 70
     1
102
RTVSPropertyOp25
 70
     1
102
RTVSPropertyOp26
 70
     1
102
RTVSPropertyOp27
 70
     1
102
RTVSPropertyOp28
 70
     1
102
RTVSPropertyOp29
 70
     1
102
RTVSPropertyOp30
 70
     1
102
RTVSPropertyOp31
 70
     1
102
RTVSPropertyOp32
 70
     1
  0
XRECORD
  5
56A
102
{ACAD_REACTORS
330
569
102
}
330
569
100
AcDbXrecord
280
     1
102
RTVSPropertyOp0
 70
     1
102
RTVSPropertyOp1
 70
     1
102
RTVSPropertyOp2
 70
     1
102
RTVSPropertyOp3
 70
     1
102
RTVSPropertyOp4
 70
     1
102
RTVSPropertyOp5
 70
     1
102
RTVSPropertyOp6
 70
     1
102
RTVSPropertyOp7
 70
     1
102
RTVSPropertyOp8
 70
     1
102
RTVSPropertyOp9
 70
     1
102
RTVSPropertyOp10
 70
     1
102
RTVSPropertyOp11
 70
     1
102
RTVSPropertyOp12
 70
     1
102
RTVSPropertyOp13
 70
     1
102
RTVSPropertyOp14
 70
     1
102
RTVSPropertyOp15
 70
     1
102
RTVSPropertyOp16
 70
     1
102
RTVSPropertyOp17
 70
     1
102
RTVSPropertyOp18
 70
     1
102
RTVSPropertyOp19
 70
     1
102
RTVSPropertyOp20
 70
     1
102
RTVSPropertyOp21
 70
     1
102
RTVSPropertyOp22
 70
     1
102
RTVSPropertyOp23
 70
     1
102
RTVSPropertyOp24
 70
     1
102
RTVSPropertyOp25
 70
     1
102
RTVSPropertyOp26
 70
     1
102
RTVSPropertyOp27
 70
     1
102
RTVSPropertyOp28
 70
     1
102
RTVSPropertyOp29
 70
     1
102
RTVSPropertyOp30
 70
     1
102
RTVSPropertyOp31
 70
     1
102
RTVSPropertyOp32
 70
     1
  0
ENDSEC
  0
EOF
